Предпоследний концерт Алисы в стране чудес (Юрий Погребничко, Лилия Загорская) [2003 г., сказка, TVRip] Московский театр "Около дома Станиславского"


 

[Цитировать]

Предпоследний концерт Алисы в стране чудес Название театра: Московский театр "Около дома Станиславского".
Год выпуска: 2003.
Жанр: сказка.
Продолжительность: 01:23:03.
Режиссеры: народный артист России Юрий Погребничко, заслуженная артистка России Лилия Загорская.
Действующие лица и исполнители:
Алиса - Алексей Левинский,
Королева - Ольга Бешуля,
Король - Константин Желдин,
Белый кролик - Сергей Каплунов,
Треска - Татьяна Токарева,
Валет - Татьяна Лосева,
Белуга - Елена Павлова,
Чеширский кот - Владимир Богданов,
Болванщик - Владимир Воробьев,
Мартовский заяц - Лилия Загорская,
Тра-ля-ля - Елена Павлова,
Тру-ля-ля - Татьяна Токарева,
Гусеница - Михаил Палатник,
Алиса - Мария Погребничко.
Описание:
По мотивам сказок Льюиса Кэрролла.
"...фантазии Юрия Погребничко на темы "Алисы в стране чудес". В театре "ОКОЛО дома Станиславского" героиню сказки Льюиса Кэрролла играет Алексей Левинский. Речь в "Предпоследнем концерте Алисы" идет об искусстве видеть мир в ином, не обыденном свете. Именно этим искусством в полной мере заряжает актер Левинский. Ни на кого не похожий, он владеет главной тайной актерского искусства - быть, а не казаться, верить, а не паясничать. Оттого и ему веришь, когда он вместе с королевой играет в королевский крокет и поет песенки из советской лагерной жизни. Сам дух парадоксальной и алогичной поэзии Кэрролла витает над этим веселым сочинением театра."

Дополнительная информация:
Страна: Россия .
Неоригинальная идея: народный артист России Юрий Погребничко.
Режиссер-постановщик: народный артист России Юрий Погребничко.
Режиссер: Лилия Загорская.
Сценография и художник по костюмам: Надежда Бахвалова.
Педагог по вокалу: Наталья Рожкова.
Сценография: Виктор Пушкин.

О спектакле.
Релиз

Качество видео:...TVRip
Формат:.................AVI
Видео:..720x400 (1.80:1), 25 fps, DivX Codec 6.8.3 ~2368 kbps avg, 0.33 bit/pixel
Аудио:..48 kHz, MPEG Layer 3, 2 ch, ~128.00 kbps avg

Отчет MediaInfo

Общее
Полное имя : Predposlednij.koncert.Alisy.v. strane.chudes_Moskovskij.teatr.Okolo.doma.Stanislavskogo.2003.DivX.TVRip.fenixclub.avi
Format : AVI
Format/Info : Audio Video Interleave
File size : 1.45 GiB
Duration : 1h 23mn
Overall bit rate : 2 507 Kbps
Video
ID : 0
Format : MPEG-4 Visual
Format settings, BVOP : 1
Format settings, QPel : No
Format settings, GMC : No warppoints
Format settings, Matrix : Default (H.263)
Codec ID : DX50
Codec ID/Hint : DivX 5
Duration : 1h 23mn
Bit rate : 2 369 Kbps
Width : 720 pixels
Height : 400 pixels
Display aspect ratio : 16:9
Frame rate : 25.000 fps
Color space : YUV
Chroma subsampling : 4:2:0
Bit depth : 8 bits
Scan type : Progressive
Compression mode : Lossy
Bits/(Pixel*Frame) : 0.329
Stream size : 1.37 GiB (95%)
Writing library : DivX 6.8.3-6.8.4 (UTC 2008-06-07)
Audio
ID : 1
Format : MPEG Audio
Format version : Version 1
Format profile : Layer 3
Mode : Joint stereo
Mode extension : MS Stereo
Codec ID : 55
Codec ID/Hint : MP3
Duration : 1h 23mn
Bit rate mode : Constant
Bit rate : 128 Kbps
Channel(s) : 2 channels
Sampling rate : 48.0 KHz
Compression mode : Lossy
Stream size : 76.0 MiB (5%)
Alignment : Split accross interleaves
Interleave, duration : 40 ms (1.00 video frame)
Interleave, preload duratio : 500 ms
Writing library : LAME3.98.2

Скриншоты

Альтернативный хост




Показать сообщения:    

Текущее время: 11-Дек 01:20

Часовой пояс: UTC + 3


Вы не можете начинать темы
Вы не можете отвечать на сообщения
Вы не можете редактировать свои сообщения
Вы не можете удалять свои сообщения
Вы не можете голосовать в опросах
Вы не можете прикреплять файлы к сообщениям
Вы не можете скачивать файлы