До и после (Михаил Бычков) [2012 г., драма, SATRip] Воронежский камерный театр


 

[Цитировать]

До и после Название театра: Воронежский камерный театр.
Жанр: драма.
Год выпуска: 2012.
Продолжительность: 01:43:45.
Режиссер-постановщик: Михаил Бычков.
Действующие лица и исполнители:
Женщина лет тридцати - Екатерина Савченко,
Мужчина из другого города - Андрей Новиков,
Бывший любовник женщины лет тридцати - Вадим Кривошеев,
Женщина из бара - Анастасия Новикова,
Мужчина в пижаме - заслуженный артист России Юрий Овчинников,
Женщина в пижаме - Татьяна Чернявская,
Мужчина с бокалом - Василий Марков,
Женщина с бокалом - Елена Дахина,
Мужчина с запонкамии - Михаил Гостев,
Мужчина со шваброй - Андрей Мирошников,
Сверчок - заслуженная артистка России Елена Лукиных.
О спектакле:
Роланд Шиммельпфенниг - один из самых популярных драматургов современной Германии. Его пьесы идут не только в самых крупных театрах Германии - в Берлине, Гамбурге, Штутгарте, Ганновере, но и за рубежом, география постановок уже давно перешагнула границы Европы. В копилке Роланда Шиммельпфеннига - престижные награды, среди которых премия им. Эльзы Ласкер, премия памяти Шиллера, несколько премий им. Нестроя, которую вручают лучшим молодым авторам.
Спектакль составлен по жизненным ситуациям неких людей (драматург не называет их имен, определяет лишь пол и какой-то признак), волею случая одновременно проживающих в одном большом отеле.
"Женщина около 30", завязавшая отношения с "мужчиной из другого города", намерена покинуть своего мужа после 11 лет совместной жизни. Мужчина, которого покидает "женщина около 30" и который хочет отомстить, завязывает отношения с другой женщиной. Другая женщина, забитая своим мужем, пытается восстановить себя как личность, следуя жизненному принципу сестры своей бабушки - всегда сохранять чувство юмора, несмотря на страдания. И так далее - наслаиваются друг на друга сцены-фрагменты, создавая калейдоскоп разных ситуаций, сливающихся в "брейгелевскую" картину современного общества.

Дополнительная информация:
Страна: Россия .
Выпущено: © Культура.рф.
Автор: Роланд Шиммельпфенниг.
Постановка и музыкальное оформление: Михаил Бычков.
Сценография и костюмы: Юрий Гальперин.
Свет: Владимир Жуков.
Звук: Владислав Толецкий.
В спектакле звучит музыка Tango Saloon, Pascal Comelande, Marc Ribot, The One Ensemble of Daniel Padden, The Dead Brothers, Bratislava Ное Serenaders.
Главный режиссер театра: Михаил Бычков.
Премьера состоялась 12 октября 2008 года.

О спектакле.
Релиз

Качество видео:...SATRip
Формат:.................AVI
Видео:..720x400 (1.80:1), 25 fps, XviD build 50 ~1749 kbps avg, 0.24 bit/pixel
Аудио:..44.100 kHz, MPEG Layer 3, 2 ch, ~128.00 kbps avg

Отчет MediaInfo

Общее
Полное имя : Do.i.posle_Voronezhskij.kamernyj.teatr.2012.XviD.SATRip.fenixclub.avi
Format : AVI
Format/Info : Audio Video Interleave
File size : 1.37 GiB
Duration : 1h 43mn
Overall bit rate : 1 887 Kbps
Video
ID : 0
Format : MPEG-4 Visual
Format profile : Advanced Simple@L5
Format settings, BVOP : 2
Format settings, QPel : No
Format settings, GMC : No warppoints
Format settings, Matrix : Default (H.263)
Codec ID : XVID
Codec ID/Hint : XviD
Duration : 1h 43mn
Bit rate : 1 749 Kbps
Width : 720 pixels
Height : 400 pixels
Display aspect ratio : 16:9
Frame rate : 25.000 fps
Color space : YUV
Chroma subsampling : 4:2:0
Bit depth : 8 bits
Scan type : Progressive
Compression mode : Lossy
Bits/(Pixel*Frame) : 0.243
Stream size : 1.27 GiB (93%)
Writing library : XviD 1.2.1 (UTC 2008-12-04)
Audio
ID : 1
Format : MPEG Audio
Format version : Version 1
Format profile : Layer 3
Mode : Joint stereo
Mode extension : MS Stereo
Codec ID : 55
Codec ID/Hint : MP3
Duration : 1h 43mn
Bit rate mode : Constant
Bit rate : 128 Kbps
Channel(s) : 2 channels
Sampling rate : 44.1 KHz
Compression mode : Lossy
Stream size : 95.0 MiB (7%)
Alignment : Split accross interleaves
Interleave, duration : 40 ms (1.00 video frame)
Interleave, preload duratio : 500 ms
Writing library : LAME3.98

Скриншоты


Альтернативный хост





Показать сообщения:    

Текущее время: 05-Дек 05:31

Часовой пояс: UTC + 3


Вы не можете начинать темы
Вы не можете отвечать на сообщения
Вы не можете редактировать свои сообщения
Вы не можете удалять свои сообщения
Вы не можете голосовать в опросах
Вы не можете прикреплять файлы к сообщениям
Вы не можете скачивать файлы