Повесть о том, как поссорились… (Александр Белинский) [1971, драма, телеспектакль, WEB-DLRip]


 

[Цитировать]

Повесть о том, как поссорились… Год выпуска: 1971.
Жанр: драма, телеспектакль.
Продолжительность: 00:58:41.
Режиссер-постановщик: Александр Белинский.
В ролях:
От автора - Игорь Окрепилов,
Иван Иванович - Василий Меркурьев,
Иван Никифорович - Юрий Толубеев,
а также:
Антонина Павлычева, Александра Ежкина, Георгий Штиль, Михаил Данилов, М. Мальцева, А. Адашевский, Р. Лебедев, Ю. Свирин.
В эпизодах: артисты ленинградских театров.
О спектакле:
По повести Николая Васильевича Гоголя.
"Повесть о том, как поссорился Иван Иванович с Иваном Никифоровичем" входит в сборник Николая Васильевича Гоголя "Миргород".

Дополнительная информация:
Страна: СССР .
Выпущено: Ленинградское телевидение.
Сценарий и постановка: Александр Белинский.
Художник: Константин Дмитраков.
Ведущий опреатор: Борис Никаноров.
Релиз
Рип lesik689.

Качество видео:...WEB-DLRip
Формат:.................AVI
Видео:..640x480 (1.33:1), 25 fps, XviD build 64 ~1599 kbps avg, 0.21 bit/pixel
Аудио:..44.100 kHz, MPEG Layer 3, 2 ch, ~128.00 kbps avg

Отчет Media Info

General
Complete name : Povest'.o.tom.kak.possorilis'.1971.XviD.WEB_DLRip.fenixclub.avi
Format : AVI
Format/Info : Audio Video Interleave
File size : 729 MiB
Duration : 58mn 40s
Overall bit rate : 1 737 Kbps
Writing application : VirtualDubMod 1.5.10.2 (build 2542/release)
Writing library : VirtualDubMod build 2542/release
Video
ID : 0
Format : MPEG-4 Visual
Format profile : Advanced Simple@L5
Format settings, BVOP : 2
Format settings, QPel : No
Format settings, GMC : No warppoints
Format settings, Matrix : Default (MPEG)
Codec ID : XVID
Codec ID/Hint : XviD
Duration : 58mn 40s
Bit rate : 1 600 Kbps
Width : 640 pixels
Height : 480 pixels
Display aspect ratio : 5:4
Original display aspect rat : 4:3
Frame rate : 25.000 fps
Color space : YUV
Chroma subsampling : 4:2:0
Bit depth : 8 bits
Scan type : Progressive
Compression mode : Lossy
Bits/(Pixel*Frame) : 0.208
Stream size : 671 MiB (92%)
Writing library : XviD 64
Audio
ID : 1
Format : MPEG Audio
Format version : Version 1
Format profile : Layer 3
Mode : Joint stereo
Mode extension : MS Stereo
Codec ID : 55
Codec ID/Hint : MP3
Duration : 58mn 40s
Bit rate mode : Constant
Bit rate : 128 Kbps
Channel(s) : 2 channels
Sampling rate : 44.1 KHz
Compression mode : Lossy
Delay relative to video : 300ms
Stream size : 53.6 MiB (7%)
Alignment : Split accross interleaves
Interleave, duration : 40 ms (1.00 video frame)
Interleave, preload duratio : 500 ms

Скриншоты


Альтернативный хост





Показать сообщения:    

Текущее время: 05-Дек 23:42

Часовой пояс: UTC + 3


Вы не можете начинать темы
Вы не можете отвечать на сообщения
Вы не можете редактировать свои сообщения
Вы не можете удалять свои сообщения
Вы не можете голосовать в опросах
Вы не можете прикреплять файлы к сообщениям
Вы не можете скачивать файлы