Влюбленные (Стефано де Лука, Зинаида Андреева) [2012 г., комедия, TVRip] Государственный академический Малый театр


 

[Цитировать]

Влюбленные Название театра: Государственный академический Малый театр.
Год выпуска: 2012.
Жанр: комедия.
Продолжительность: 01:57:22.
Режиссеры: Стефано де Лука (Италия), Зинаида Андреева.
Действующие лица и исполнители:
Эуджения - Ольга Абрамова,
Фульдженцио - Михаил Мартьянов,
Фламминия - Ирина Жерякова,
Ридольфо - Григорий Скряпкин,
Клоринда - Любовь Ещенко,
Лизетта - Ольга Жевакина,
Граф Роберто - Александр Дривень,
Фабрицио - Виктор Низовой,
Тоньино - Сергей Потапов.
Описание:
Восемнадцатый век, солнечная Италия и молодые герои, задающиеся вопросами о странностях любви.
Эуджения, племянница Фабрицио, обедневшего горожанина, влюблена в Фульдженцио. Тот, в свою очередь, не менее страстно влюблен в Эуджению. Но цепь недоразумений, нелепых и дурацких ситуаций на протяжении всей комедии неустанно мешает влюбленным заключить друг друга в объятия и осыпать друг друга поцелуями.

Дополнительная информация:
Страна: Россия .
Автор: Карло Гольдони.
Перевод В.А.Федорук и Д.И.Охотникова.
Режиссер-постановщик спектакля: Жорж Лаводан.
Режиссёр: заслуженная артистка России Зинаида Андреева.
Художник-постановщик:Лейла Фтейта (Италия).
Композитор: народный артист России Григорий Гоберник.
Художник по свету: Клаудио де Паче (Италия).
Художественный руководитель театра: народный артист СССР Юрий Соломин.
Прeмьера спектакля: 11 октября 2010 года.

О спектакле.
Релиз

Качество: TVRip
Формат: AVI
Видео: 720x400 (1.80:1), 25 fps, XviD MPEG-4 ~1529 kbps avg, 0.21 bit/pixel
Аудио: 44.100 kHz, MPEG Layer 3, 2 ch, ~128.00 kbps avg

Отчет Media Info

General
Complete name : Vlyublennye_Malyj.teatr.2012.XviD.SATRip.fenixclub.avi
Format : AVI
Format/Info : Audio Video Interleave
File size : 1.37 GiB
Duration : 1h 57mn
Overall bit rate : 1 668 Kbps
Video
ID : 0
Format : MPEG-4 Visual
Format profile : Advanced Simple@L5
Format settings, BVOP : 2
Format settings, QPel : No
Format settings, GMC : No warppoints
Format settings, Matrix : Default (H.263)
Codec ID : XVID
Codec ID/Hint : XviD
Duration : 1h 57mn
Bit rate : 1 530 Kbps
Width : 720 pixels
Height : 400 pixels
Display aspect ratio : 16:9
Frame rate : 25.000 fps
Color space : YUV
Chroma subsampling : 4:2:0
Bit depth : 8 bits
Scan type : Progressive
Compression mode : Lossy
Bits/(Pixel*Frame) : 0.212
Stream size : 1.25 GiB (92%)
Writing library : XviD 73
Audio
ID : 1
Format : MPEG Audio
Format version : Version 1
Format profile : Layer 3
Mode : Joint stereo
Mode extension : MS Stereo
Codec ID : 55
Codec ID/Hint : MP3
Duration : 1h 57mn
Source duration : 1h 57mn
Bit rate mode : Constant
Bit rate : 128 Kbps
Channel(s) : 2 channels
Sampling rate : 44.1 KHz
Compression mode : Lossy
Stream size : 107 MiB (8%)
Alignment : Aligned on interleaves
Interleave, duration : 40 ms (1.00 video frame)
Writing library : LAME3.98.2

Скриншот c названием постановки

Скриншоты


Альтернативный хост





Показать сообщения:    

Текущее время: 05-Дек 23:32

Часовой пояс: UTC + 3


Вы не можете начинать темы
Вы не можете отвечать на сообщения
Вы не можете редактировать свои сообщения
Вы не можете удалять свои сообщения
Вы не можете голосовать в опросах
Вы не можете прикреплять файлы к сообщениям
Вы не можете скачивать файлы