Сказки и истории. Андерсен (Галина Самойлова) [1989 г., сказка, телеспектакль, TVRip]


 

[Цитировать]

Сказки и истории. Андерсен Год выпуска: 1989.
Жанр: сказка, телеспектакль.
Продолжительность: 00:33:12.
Режиссер-постановщик: Галина Самойлова.
Исполнители:
Народный артист СССР Андрей Попов, Алексей Борзунов, заслуженный артист РСФСР Михаил Козаков , Татьяна Ицыкович (Васильева), Альберт Филозов, Людмила Крылова.
О спектакле:
Литературный спектакль посвящен творчеству датского писателя-сказочника Ганса Христиана Андерсена.
В основе спектакля его сказки: "Мотылек", "Ребячья болтовня", "Лён".
В сказках Андерсена исполняется самая главная надежда каждого человека - надежда на счастье.
Его сказки - неотъемлемая часть и детского, и взрослого мира. В удивительном мире Андерсена все дышит волшебной жизнью: даже обычные вещи по ночам разговаривают, мирятся и ссорятся, стремятся к любви и счастью...

Дополнительная информация:
Страна: СССР .
Автор: Ганс Христиан Андерсен.
Релиз

Качество видео:...TVRip
Формат:.................AVI
Видео:..688x512 (1.34:1), 25 fps, XviD build 73 ~1530 kbps avg, 0.17 bit/pixel
Аудио:..44.100 kHz, MPEG Layer 3, 2 ch, ~128.00 kbps avg

Отчет Media Info

General
Complete name : Skazki.i.istorii.Andersen.1989.XviD.TVRip.fenixclub.avi
Format : AVI
Format/Info : Audio Video Interleave
File size : 396 MiB
Duration : 33mn 12s
Overall bit rate : 1 668 Kbps
Video
ID : 0
Format : MPEG-4 Visual
Format profile : Advanced Simple@L5
Format settings, BVOP : 2
Format settings, QPel : No
Format settings, GMC : No warppoints
Format settings, Matrix : Default (H.263)
Codec ID : XVID
Codec ID/Hint : XviD
Duration : 33mn 12s
Bit rate : 1 531 Kbps
Width : 688 pixels
Height : 512 pixels
Display aspect ratio : 4:3
Frame rate : 25.000 fps
Color space : YUV
Chroma subsampling : 4:2:0
Bit depth : 8 bits
Scan type : Progressive
Compression mode : Lossy
Bits/(Pixel*Frame) : 0.174
Stream size : 364 MiB (92%)
Writing library : XviD 73
Audio
ID : 1
Format : MPEG Audio
Format version : Version 1
Format profile : Layer 3
Mode : Joint stereo
Mode extension : MS Stereo
Codec ID : 55
Codec ID/Hint : MP3
Duration : 33mn 12s
Bit rate mode : Constant
Bit rate : 128 Kbps
Channel(s) : 2 channels
Sampling rate : 44.1 KHz
Compression mode : Lossy
Stream size : 30.4 MiB (8%)
Alignment : Split accross interleaves
Interleave, duration : 40 ms (1.00 video frame)
Interleave, preload duratio : 500 ms
Writing library : LAME3.98.2

Скриншоты

Альтернативный хост




Показать сообщения:    

Текущее время: 10-Дек 17:49

Часовой пояс: UTC + 3


Вы не можете начинать темы
Вы не можете отвечать на сообщения
Вы не можете редактировать свои сообщения
Вы не можете удалять свои сообщения
Вы не можете голосовать в опросах
Вы не можете прикреплять файлы к сообщениям
Вы не можете скачивать файлы