Затейник (Александр Баркар) [2014 г., драма, SATRip] Российский академический молодежный театр


 

[Цитировать]

Затейник Название театра: Российский академический молодежный театр.
Жанр: драма.
Год выпуска: 2014.
Продолжительность: 01:09:39.
Режиссеры: Александр Баркар.
Действующие лица и исполнители:
Галина - Рамиля Искандер,
Валентин - Степан Морозов,
Сергей - Андрей Сипин.
Описание:
Герои пьес Розова обычно молодые люди, но в этом произведении автор приблизил персонажей к своему возрасту. Их диалоги, сравнимые по напряженности с дуэлями, режиссер совершенствует до предела, так что героиня Галина находится под свистом пуль. А "стрелками" выступают Сергей и Валентин. Галина является темой всех разговоров двух мужчин. Напряженные диалоги - заслуга режиссера, который сохранил замысел автора, при этом заставив текст бурно кипеть. Чуть больше чем на час зрители попадают в далекий от столичного шума дом отдыха, где Сергей исполняет обязанности затейника, или по-современному - аниматора. Все трое героев - люди с несчастной судьбой, заключившие когда-то сделку с совестью и лишившие себя счастья. Галина поклялась забыть первую любовь и стала женой нелюбимого. На протяжении спектакля она все больше жалеет потерянные годы. Галина узнает, что возлюбленный работает в загородном пансионате и едет к нему.
Дополнительная информация:
Страна: Россия .
Автор: Виктор Розов.
Авторы пьесы: Александр Баркар.
Художник: Юлия Пичугина.
Художник по костюмам: Наталья Воинова.
Премьера состоялась 25 апреля 2014 года.

О спектакле.
Релиз

Качество: SATRip
Формат: AVI
Видео:..720x400 (1.80:1), 25 fps, XviD build 73 ~1359 kbps avg, 0.19 bit/pixel
Аудио:..48 kHz, MPEG Layer 3, 2 ch, ~128.00 kbps avg

Отчет Media Info

Общее
Полное имя : Zateinik_RAMT.2014.XviD.SATRip.fenixclub.avi
Format : AVI
Format/Info : Audio Video Interleave
File size : 746 MiB
Duration : 1h 9mn
Overall bit rate : 1 497 Kbps
Video
ID : 0
Format : MPEG-4 Visual
Format profile : Advanced Simple@L5
Format settings, BVOP : 2
Format settings, QPel : No
Format settings, GMC : No warppoints
Format settings, Matrix : Default (H.263)
Codec ID : XVID
Codec ID/Hint : XviD
Duration : 1h 9mn
Bit rate : 1 360 Kbps
Width : 720 pixels
Height : 400 pixels
Display aspect ratio : 16:9
Frame rate : 25.000 fps
Color space : YUV
Chroma subsampling : 4:2:0
Bit depth : 8 bits
Scan type : Progressive
Compression mode : Lossy
Bits/(Pixel*Frame) : 0.189
Stream size : 677 MiB (91%)
Writing library : XviD 73
Audio
ID : 1
Format : MPEG Audio
Format version : Version 1
Format profile : Layer 3
Mode : Joint stereo
Mode extension : MS Stereo
Codec ID : 55
Codec ID/Hint : MP3
Duration : 1h 9mn
Bit rate mode : Constant
Bit rate : 128 Kbps
Channel(s) : 2 channels
Sampling rate : 48.0 KHz
Compression mode : Lossy
Stream size : 63.8 MiB (9%)
Alignment : Split accross interleaves
Interleave, duration : 40 ms (1.00 video frame)
Interleave, preload duratio : 500 ms
Writing library : LAME3.98.2

Скриншоты

Альтернативный хост




Показать сообщения:    

Текущее время: 10-Дек 21:37

Часовой пояс: UTC + 3


Вы не можете начинать темы
Вы не можете отвечать на сообщения
Вы не можете редактировать свои сообщения
Вы не можете удалять свои сообщения
Вы не можете голосовать в опросах
Вы не можете прикреплять файлы к сообщениям
Вы не можете скачивать файлы