Театр по правилам и без (Владимир Петров) [2008 г., комедия, TVRip] Независимый театральный проект


 

[Цитировать]

Театр по правилам и без (2 действия) Название театра: Независимый театральный проект.
Год выпуска: 2008.
Жанр: комедия.
Продолжительность: 01:15:56 + 01:26:11 (02:42:07).
Режиссеры: Владимир Петров.
Действующие лица и исполнители:
Дотти, она же Миссис Клакетт - Татьяна Рудина,
Гарри, он же Роджер - Петр Красилов,
Брук, она же Вики - Елена Бирюкова,
Фредерик, он же Филипп - заслуженный артист России Валерий Яременко,
Белинда, она же Флавия - заслуженная артистка России Анна Якунина,
Селздон, он же грабитель - заслуженный артист России Леонид Евтифьев,
Ллойд, режиссер - Вячеслав Разбегаев,
Поппи, помощник режиссера - Екатерина Юдина,
Тим, рабочий сцены - Сергей Хапров.
Описание:
Мегахит мировой сцены - комедия английского драматурга Майкла Фрейна в версии мастера комедии режиссера Владимира Петрова.
Картина I – Актеры частной английской труппы репетируют незатейливую комедию "Любовь и сардины". Ночная репетиция перед премьерой. Декорации не готовы, артисты плохо знаю текст и путают мизансцены, режиссер на грани нервного срыва. Однако спектакль состоится при "любой погоде".
Картина II – Месяц спустя. Гастрольный тур в самом разгаре. Дневной спектакль в маленьком провинциальном городке. "Вид сзади" - из-за кулис. Зритель видит все, что происходит за кулисами во время действия. А это зрелище не для слабонервных. Склоки, интриги, любовные перипетии.
Картина III - Три месяца спустя. Гастроли подходят к концу. Ежедневные показы и частые переезды вымотали актеров до предела. Труппа на грани войны, актеры ненавидят всё и вся. Но в зале зритель, и они выходят на сцену и играют спектакль. Однако, то, что происходит на сцене, спектаклем назвать трудно. Это истерика.
Заглянем за занавес, подсмотрим в щелочку, восхитимся, ужаснемся и еще раз признаемся Театру в любви.
ВСЕ, ЧТО ВЫ ХОТЕЛИ ЗНАТЬ О ТЕАТРЕ, НО БОЯЛИСЬ СПРОСИТЬ.

Дополнительная информация:
Страна: Россия .
Автор: Майкл Фрейн.
Перевод с английского: Зоя Андерсон.
Театральная версия: Михаил Рощин.
Художник-постановщик: Андрей Климов.
Художник по свету: Сергей Скорнецкий.
Композитор: Юрий Алябов.
Прeмьера спектакля: 14 октября 2008 года.

О спектакле.
Релиз

Качество: TVRip
Формат: AVI
Видео: 640x464 (1.38:1), 25 fps, XviD build 73 ~1148 kbps avg, 0.15 bit/pixel
Аудио: 44.100 kHz, MPEG Layer 3, 2 ch, ~128.00 kbps avg

Отчет Media Info

1-е действие
General
Complete name : Teatr.po.pravilam.i.bez_Nezavisimyj.teatral'nyj.proekt.(2.dejstviya).2008.XviD.TVRip.fenixclub\Teatr.po.pravilam.i.bez_Nezavisimyj.teatral'nyj.proekt.(1-e.dejstvie).2008.avi
Format : AVI
Format/Info : Audio Video Interleave
File size : 699 MiB
Duration : 1h 15mn
Overall bit rate : 1 286 Kbps
Video
ID : 0
Format : MPEG-4 Visual
Format profile : Advanced Simple@L5
Format settings, BVOP : 2
Format settings, QPel : No
Format settings, GMC : No warppoints
Format settings, Matrix : Default (H.263)
Codec ID : XVID
Codec ID/Hint : XviD
Duration : 1h 15mn
Bit rate : 1 149 Kbps
Width : 640 pixels
Height : 464 pixels
Display aspect ratio : 1.379
Frame rate : 25.000 fps
Color space : YUV
Chroma subsampling : 4:2:0
Bit depth : 8 bits
Scan type : Progressive
Compression mode : Lossy
Bits/(Pixel*Frame) : 0.155
Stream size : 624 MiB (89%)
Writing library : XviD 73
Audio
ID : 1
Format : MPEG Audio
Format version : Version 1
Format profile : Layer 3
Mode : Joint stereo
Mode extension : MS Stereo
Codec ID : 55
Codec ID/Hint : MP3
Duration : 1h 15mn
Bit rate mode : Constant
Bit rate : 128 Kbps
Channel(s) : 2 channels
Sampling rate : 44.1 KHz
Compression mode : Lossy
Stream size : 69.5 MiB (10%)
Alignment : Split accross interleaves
Interleave, duration : 40 ms (1.00 video frame)
Interleave, preload duratio : 500 ms
Writing library : LAME3.98.2
2-е действие
General
Complete name : Teatr.po.pravilam.i.bez_Nezavisimyj.teatral'nyj.proekt.(2.dejstviya).2008.XviD.TVRip.fenixclub\Teatr.po.pravilam.i.bez_Nezavisimyj.teatral'nyj.proekt.(2-e.dejstvie).2008.avi
Format : AVI
Format/Info : Audio Video Interleave
File size : 793 MiB
Duration : 1h 26mn
Overall bit rate : 1 286 Kbps
Video
ID : 0
Format : MPEG-4 Visual
Format profile : Advanced Simple@L5
Format settings, BVOP : 2
Format settings, QPel : No
Format settings, GMC : No warppoints
Format settings, Matrix : Default (H.263)
Codec ID : XVID
Codec ID/Hint : XviD
Duration : 1h 26mn
Bit rate : 1 148 Kbps
Width : 640 pixels
Height : 464 pixels
Display aspect ratio : 1.379
Frame rate : 25.000 fps
Color space : YUV
Chroma subsampling : 4:2:0
Bit depth : 8 bits
Scan type : Progressive
Compression mode : Lossy
Bits/(Pixel*Frame) : 0.155
Stream size : 708 MiB (89%)
Writing library : XviD 73
Audio
ID : 1
Format : MPEG Audio
Format version : Version 1
Format profile : Layer 3
Mode : Joint stereo
Mode extension : MS Stereo
Codec ID : 55
Codec ID/Hint : MP3
Duration : 1h 26mn
Bit rate mode : Constant
Bit rate : 128 Kbps
Channel(s) : 2 channels
Sampling rate : 44.1 KHz
Compression mode : Lossy
Stream size : 78.9 MiB (10%)
Alignment : Split accross interleaves
Interleave, duration : 40 ms (1.00 video frame)
Interleave, preload duratio : 500 ms
Writing library : LAME3.98.2

Скриншоты


Альтернативный хост





Показать сообщения:    

Текущее время: 03-Дек 18:42

Часовой пояс: UTC + 3


Вы не можете начинать темы
Вы не можете отвечать на сообщения
Вы не можете редактировать свои сообщения
Вы не можете удалять свои сообщения
Вы не можете голосовать в опросах
Вы не можете прикреплять файлы к сообщениям
Вы не можете скачивать файлы