Случай с невидимкой (Марат Ларин) [1976 г., музыкальная комедия, телеспектакль, SATRip] Государственный Академический театр "Московская Оперетта"


 

[Цитировать]

Случай с невидимкой Название театра: Государственный Академический театр "Московская Оперетта".
Год выпуска: 1976.
Жанр: музыкальная комедия, телеспектакль.
Продолжительность: 00:57:46.
Режиссер: Марат Ларин.
В ролях:
Виктор Костецкий, Герард Васильев, Александр Горелик, Валерий Батейко, Капитолина Кузьмина, Алла Агеева, Лидия Боборыкина, Вадим Фыгин, Вячеслав Богачев, Алексей Степутенко, Владимир Голышев, Юрий Богданов, Станислав Бруцин, Борис Витюхов, Измаил Гамреклидзе, Александр Ткаченко, Юрий Савельев, Владимир Винокур, Анатолий Пиневич, Владимир Николаев, Марк Туманов, Альфред Шаргородский.
В спектакле принимают участие артисты балета Московского театра оперетты.
О спектакле:
Представьте, что герой, который стал невидимкой, заболел театром и решил стать актером. Он стал искать роль наиболее близкую его индивидуальности.
В основе телеспектакля - постановки Московского театра оперетты - "Мистер Пиквик" Золтана Петера, "Свадьба Кречинского" Александра Колкера, "Ревизор" Теодора Миртинского и "Как сделать карьеру" Вольфганга Лессера.

Дополнительная информация:
Страна: Россия .
Художник: Галина Мазненкова.
Художник по костюмам: Иван Марчук.
Операторы: Валентин Попов, Вячеслав Коняев, Виталий Баканин.

Релиз

Качество видео:...SATRip
Формат:.................AVI
Видео:..640x480 (1.33:1), 25 fps, XviD build 73 ~1554 kbps avg, 0.20 bit/pixel
Аудио:..44.100 kHz, MPEG Layer 3, 2 ch, ~128.00 kbps avg

Отчет Media Info

General
Complete name : Sluchai.s.nevidimkoi.1976.XviD.TVRip.fenixclub.avi
Format : AVI
Format/Info : Audio Video Interleave
File size : 699 MiB
Duration : 57mn 46s
Overall bit rate : 1 693 Kbps
Video
ID : 0
Format : MPEG-4 Visual
Format profile : Advanced Simple@L5
Format settings, BVOP : 2
Format settings, QPel : No
Format settings, GMC : No warppoints
Format settings, Matrix : Default (H.263)
Codec ID : XVID
Codec ID/Hint : XviD
Duration : 57mn 46s
Bit rate : 1 555 Kbps
Width : 640 pixels
Height : 480 pixels
Display aspect ratio : 4:3
Frame rate : 25.000 fps
Color space : YUV
Chroma subsampling : 4:2:0
Bit depth : 8 bits
Scan type : Progressive
Compression mode : Lossy
Bits/(Pixel*Frame) : 0.202
Stream size : 642 MiB (92%)
Writing library : XviD 73
Audio
ID : 1
Format : MPEG Audio
Format version : Version 1
Format profile : Layer 3
Mode : Joint stereo
Mode extension : MS Stereo
Codec ID : 55
Codec ID/Hint : MP3
Duration : 57mn 45s
Bit rate mode : Constant
Bit rate : 128 Kbps
Channel(s) : 2 channels
Sampling rate : 44.1 KHz
Compression mode : Lossy
Stream size : 52.9 MiB (8%)
Alignment : Split accross interleaves
Interleave, duration : 40 ms (1.00 video frame)
Interleave, preload duratio : 500 ms
Writing library : LAME3.98

Скриншоты


Альтернативный хост





Показать сообщения:    

Текущее время: 03-Дек 07:33

Часовой пояс: UTC + 3


Вы не можете начинать темы
Вы не можете отвечать на сообщения
Вы не можете редактировать свои сообщения
Вы не можете удалять свои сообщения
Вы не можете голосовать в опросах
Вы не можете прикреплять файлы к сообщениям
Вы не можете скачивать файлы