Снимок Бога (Михаил Левитин) [2000 г., драма, SATRip] Московский театр «Эрмитаж»


 

[Цитировать]

Снимок Бога (2 действия) Название театра: Московский театр «Эрмитаж».
Год выпуска: 2000.
Жанр: драма.
Продолжительность: 00:49:55 + 01:31:50 (02:21:45).
Режиссер: заслуженный деятель искусств РСФСР Михаил Левитин.
Действующие лица и исполнители:
Мать - заслуженная артистка России Александра Ислентьева
Эрендира - Ольга Левитина,
Бабка - Дарья Белоусова,
Фотограф - Борис Романов,
Улисс - Евгений Фроленков,
Неистовая монахиня - Ирина Богданова,
Неизвестный - Александр Пожаров.
О спектакле:
В основе спектакля произведение Габриэля Гарсиа Маркеса "Невероятная и печальная история о несчастной Эрендире и ее бессердечной бабке".
Рассказ Маркеса – трагичен, фантастичен, это притча со страшным сюжетом, леденящим кровь.
Спектакль Левитина повторяет этот настрой, углубляя его до предела.
Бабушка - настоящее чудовище - заставляет малолетнюю внучку продавать свое тело для того, чтобы расплатиться за дом, который сгорел по ее вине.
Поймав пытавшуюся сбежать девочку, бабка приковывает ее железной цепью...

Дополнительная информация:
Страна: Россия .
Выпущено: Московский театр «Эрмитаж», ООО "Альма Матер".
Автор: Габриэль Гарсиа Маркес.
Пьеса и постановка: заслуженный деятель искусств РСФСР Михаил Левитин.
Художник: народный художник России Давид Боровский.
Композитор: народный артист России Владимир Дашкевич.
Музыкальное оформление: Эдуард Мельников.
Премьера спектакля состоялась 26 декабря 2000 года.

О спектакле.
Релиз

Качество видео:...SATRip
Формат:.................AVI
Видео:..720x400 (1.80:1), 25 fps, XviD build 73 ~1338 kbps avg, 0.19 bit/pixel
Аудио:..48 kHz, MPEG Layer 3, 2 ch, ~128.00 kbps avg

Отчет Media Info

1-е действие
General
Complete name : Snimok.Boga_Moskovskij.teatr.Ermitazh.(2.dejstviya).2000.XviD.SATRip.fenixclub\Snimok.Boga_Moskovskij.teatr.Ermitazh.(1-e.dejstvie).2000.avi
Format : AVI
Format/Info : Audio Video Interleave
File size : 527 MiB
Duration : 49mn 55s
Overall bit rate : 1 476 Kbps
Video
ID : 0
Format : MPEG-4 Visual
Format profile : Advanced Simple@L5
Format settings, BVOP : 2
Format settings, QPel : No
Format settings, GMC : No warppoints
Format settings, Matrix : Default (H.263)
Codec ID : XVID
Codec ID/Hint : XviD
Duration : 49mn 55s
Bit rate : 1 339 Kbps
Width : 720 pixels
Height : 400 pixels
Display aspect ratio : 16:9
Frame rate : 25.000 fps
Color space : YUV
Chroma subsampling : 4:2:0
Bit depth : 8 bits
Scan type : Progressive
Compression mode : Lossy
Bits/(Pixel*Frame) : 0.186
Stream size : 478 MiB (91%)
Writing library : XviD 73
Audio
ID : 1
Format : MPEG Audio
Format version : Version 1
Format profile : Layer 3
Mode : Joint stereo
Mode extension : MS Stereo
Codec ID : 55
Codec ID/Hint : MP3
Duration : 49mn 55s
Bit rate mode : Constant
Bit rate : 128 Kbps
Channel(s) : 2 channels
Sampling rate : 48.0 KHz
Compression mode : Lossy
Stream size : 45.7 MiB (9%)
Alignment : Split accross interleaves
Interleave, duration : 40 ms (1.00 video frame)
Interleave, preload duratio : 500 ms
Writing library : LAME3.98.2
2-е действие
General
Complete name : Snimok.Boga_Moskovskij.teatr.Ermitazh.(2.dejstviya).2000.XviD.SATRip.fenixclub\Snimok.Boga_Moskovskij.teatr.Ermitazh.(2-e.dejstvie).2000.avi
Format : AVI
Format/Info : Audio Video Interleave
File size : 970 MiB
Duration : 1h 31mn
Overall bit rate : 1 476 Kbps
Video
ID : 0
Format : MPEG-4 Visual
Format profile : Advanced Simple@L5
Format settings, BVOP : 2
Format settings, QPel : No
Format settings, GMC : No warppoints
Format settings, Matrix : Default (H.263)
Codec ID : XVID
Codec ID/Hint : XviD
Duration : 1h 31mn
Bit rate : 1 339 Kbps
Width : 720 pixels
Height : 400 pixels
Display aspect ratio : 16:9
Frame rate : 25.000 fps
Color space : YUV
Chroma subsampling : 4:2:0
Bit depth : 8 bits
Scan type : Progressive
Compression mode : Lossy
Bits/(Pixel*Frame) : 0.186
Stream size : 879 MiB (91%)
Writing library : XviD 73
Audio
ID : 1
Format : MPEG Audio
Format version : Version 1
Format profile : Layer 3
Mode : Joint stereo
Mode extension : MS Stereo
Codec ID : 55
Codec ID/Hint : MP3
Duration : 1h 31mn
Bit rate mode : Constant
Bit rate : 128 Kbps
Channel(s) : 2 channels
Sampling rate : 48.0 KHz
Compression mode : Lossy
Stream size : 84.1 MiB (9%)
Alignment : Split accross interleaves
Interleave, duration : 40 ms (1.00 video frame)
Interleave, preload duratio : 500 ms
Writing library : LAME3.98.2

Скриншоты


Альтернативный хост





Показать сообщения:    

Текущее время: 03-Дек 07:38

Часовой пояс: UTC + 3


Вы не можете начинать темы
Вы не можете отвечать на сообщения
Вы не можете редактировать свои сообщения
Вы не можете удалять свои сообщения
Вы не можете голосовать в опросах
Вы не можете прикреплять файлы к сообщениям
Вы не можете скачивать файлы