Дети солнца (Адольф Шапиро, Александр Шуйский) [2009 г., драма, TVRip] Государственный академический Малый театр


 

[Цитировать]

Дети солнца Название театра: Государственный академический Малый театр.
Год выпуска: 2009.
Жанр: драма.
Продолжительность: 02:36:52.
Режиссеры: народный артист Латвии Адольф Шапиро, Александр Шуйский, Владимир Крупницкий.
Действующие лица и исполнители:
Павел Федорович Протасов - Василий Бочкарев,
Лиза, его сестра - Людмила Титова,
Елена Николаевна - Светлана Аманова,
Дмитрий Сергеевич Вагин - Глеб Подгородинский,
Борис Николаевич Чепурной - Виктор Низовой,
Мелания, его сестра - Евгения Глушенко,
Назар Авдеевич - Виталий Коняев,
Миша, его сын - Cергей Потапов,
Егор, слесарь - Александр Коршунов,
Авдотья, его жена - Елена Доронина,
Яков Трошин - Виктор Андрианов,
Антоновна, нянька - Людмила Полякова,
Фима, горничная - Ольга Жевакина,
Луша, горничная - Ирина Жерякова,
Роман - Eвгений Куршинский,
Доктор - Сергей Кагаков,
Мастеровые - Георгий Вавилов, Александр Дривень, Михаил Мартьянов, Максим Хрусталев, Т. Караев, Константин Юдаев.
Девочка со скрипкой - Ася Аксаментова.
Описание:
Начало XX века – это период расцвета науки и искусства и вместе с тем предвестие великой катастрофы. В своей пьесе "Дети солнца" Максим Горький поднимает вечные темы любви, одиночества, отчуждения и надежды на фоне того удивительного времени. Увлеченный высокой идеей человек может не замечать того, что творится у него под носом, мимо него проносятся простые драмы повседневной жизни. К числу таких "всевидящих слепцов" относится и Павел Протасов, главный герой спектакля, пронизанного любовью и тонкой дружеской иронией.
Дополнительная информация:
Страна: Россия .
Выпущено: Региональный благотворительный фонд "Сцена-мир", ООО "Киноцент 2К".
Автор: Максим Горький.
Режиссер-постановщик спектакля: народный артист Латвии Адольф Шапиро.
Режиссёр: Александр Шуйский.
Художник-постановщик: Владимир Ковальчук.
Композитор: народный артист России Григорий Гоберник.
Художник по свету: заслуженный деятель искусств России Дамир Исмагилов.
Художественный руководитель театра: народный артист СССР Юрий Соломин.
Прeмьера спектакля: 15 октября 2008 года.
Режиссер телеверсии: Владимир Крупницкий.
Операторы: М. Лагин, О. Кузнецов, А. Кузьмин, А. Харитонов, Э. Овечко, А. Хоменко, А. Яременко, И. Климентаев, А. Терехов.

О спектакле.
Релиз

Качество: TVRip
Формат: AVI
Видео: 640x368 (1.74:1), 25 fps, XviD build 73 ~1110 kbps avg, 0.19 bit/pixel
Аудио: 44.100 kHz, MPEG Layer 3, 2 ch, ~128.00 kbps avg

Отчет Media Info

General
Complete name : Deti.solnca_Mayj.teatr.2009.XviD.TVRip.fenixclub.avi
Format : AVI
Format/Info : Audio Video Interleave
File size : 1.37 GiB
Duration : 2h 36mn
Overall bit rate : 1 248 Kbps
Video
ID : 0
Format : MPEG-4 Visual
Format profile : Advanced Simple@L5
Format settings, BVOP : 2
Format settings, QPel : No
Format settings, GMC : No warppoints
Format settings, Matrix : Default (H.263)
Codec ID : XVID
Codec ID/Hint : XviD
Duration : 2h 36mn
Bit rate : 1 110 Kbps
Width : 640 pixels
Height : 368 pixels
Display aspect ratio : 1.739
Frame rate : 25.000 fps
Color space : YUV
Chroma subsampling : 4:2:0
Bit depth : 8 bits
Scan type : Progressive
Compression mode : Lossy
Bits/(Pixel*Frame) : 0.189
Stream size : 1.22 GiB (89%)
Writing library : XviD 73
Audio
ID : 1
Format : MPEG Audio
Format version : Version 1
Format profile : Layer 3
Mode : Joint stereo
Mode extension : MS Stereo
Codec ID : 55
Codec ID/Hint : MP3
Duration : 2h 36mn
Bit rate mode : Constant
Bit rate : 128 Kbps
Channel(s) : 2 channels
Sampling rate : 44.1 KHz
Compression mode : Lossy
Stream size : 144 MiB (10%)
Alignment : Split accross interleaves
Interleave, duration : 40 ms (1.00 video frame)
Interleave, preload duratio : 500 ms
Writing library : LAME3.98.2

Скриншоты


Альтернативный хост





Показать сообщения:    

Текущее время: 05-Дек 01:20

Часовой пояс: UTC + 3


Вы не можете начинать темы
Вы не можете отвечать на сообщения
Вы не можете редактировать свои сообщения
Вы не можете удалять свои сообщения
Вы не можете голосовать в опросах
Вы не можете прикреплять файлы к сообщениям
Вы не можете скачивать файлы