Соблазны (Ильдар Гилязев) [1999 г., комедия, TVRip] Московский театральный центр "Вишневый сад"


 

[Цитировать]

Соблазны Название театра: Московский театральный центр "Вишневый сад".
Год выпуска: 1999.
Жанр: комедия.
Продолжительность: 01:01:10.
Режиссеры: Ильдар Гилязев, Константин Антропов.
Действующие лица и исполнители:
Полтергейст - Татьяна Бондаренко,
Софи - Мария Вакулина,
Зеллер - Сергей Ковалев,
Альцест - Вадим Райкин,
Хозяин гостиницы - Игорь Ветров,
Служанка - Ирина Казакова.
О спектакле:
О всевозможных мирских радостях, и о том, как не поддаваться искушению.
Спектакль поставлен по ранней пьесе великого писателя, впервые открытой для московской сцены. В нем счастливо сочетаются свойственные Гете высокие нравственные искания и юмор. Как следует из названия, герои пьесы проходят искушение разными мирскими радостями, чтобы в финале остро закрученного сюжета остаться в рамках общепринятой морали.

Дополнительная информация:
Страна: Россия .
Выпущено: © Студия фондовых и архивных программ телеканала "Культура".
Автор: Иоганн Вольфганг Гете.
Перевод с немецкого Ирэны Грицковой.
Режиссер спектакля: Ильдар Гилязев.
Художник:
Светлана Сладковская
.
Композитор: Никита Широков.
Художественный руководитель театра: заслуженный деятель искусств Российской Федерации Александр Вилькин.
Режиссер телеверсии: Константин Антропов.
Операторы: Юрий Журавлев, Юрий Лисин, А. Смирнов.

Релиз

Качество видео:...TVRip
Формат:.................AVI
Видео:..720x528 (1.36:1), 25 fps, XviD build 73 ~1565 kbps avg, 0.16 bit/pixel
Аудио:..48 kHz, MPEG Layer 3, 2 ch, ~128.00 kbps avg

Отчет Media Info

General
Complete name : Soblazny_Moskovskij.TC.Vishnyovyj.sad.1999.XviD.TVRip.fenixclub.avi
Format : AVI
Format/Info : Audio Video Interleave
File size : 745 MiB
Duration : 1h 1mn
Overall bit rate : 1 703 Kbps
Video
ID : 0
Format : MPEG-4 Visual
Format profile : Advanced Simple@L5
Format settings, BVOP : 2
Format settings, QPel : No
Format settings, GMC : No warppoints
Format settings, Matrix : Default (H.263)
Codec ID : XVID
Codec ID/Hint : XviD
Duration : 1h 1mn
Bit rate : 1 566 Kbps
Width : 720 pixels
Height : 528 pixels
Display aspect ratio : 4:3
Frame rate : 25.000 fps
Color space : YUV
Chroma subsampling : 4:2:0
Bit depth : 8 bits
Scan type : Progressive
Compression mode : Lossy
Bits/(Pixel*Frame) : 0.165
Stream size : 685 MiB (92%)
Writing library : XviD 73
Audio
ID : 1
Format : MPEG Audio
Format version : Version 1
Format profile : Layer 3
Mode : Joint stereo
Mode extension : MS Stereo
Codec ID : 55
Codec ID/Hint : MP3
Duration : 1h 1mn
Bit rate mode : Constant
Bit rate : 128 Kbps
Channel(s) : 2 channels
Sampling rate : 48.0 KHz
Compression mode : Lossy
Stream size : 56.0 MiB (8%)
Alignment : Split accross interleaves
Interleave, duration : 40 ms (1.00 video frame)
Interleave, preload duratio : 500 ms.

Скриншоты

Альтернативный хост




Показать сообщения:    

Текущее время: 10-Дек 23:32

Часовой пояс: UTC + 3


Вы не можете начинать темы
Вы не можете отвечать на сообщения
Вы не можете редактировать свои сообщения
Вы не можете удалять свои сообщения
Вы не можете голосовать в опросах
Вы не можете прикреплять файлы к сообщениям
Вы не можете скачивать файлы