Пропавшая грамота [1974 г., Литературные чтения, TVRip]


 

[Цитировать]

Пропавшая грамота Год выпуска: 1974.
Жанр: Литературные чтения.
Продолжительность: 00:20:34.
Исполнитель: Александр Калягин.
Описание:
Быль, рассказанная дьячком ***ской церкви.
Александр Калягин исполняет повесть "Пропавшая грамота" Николая Васильевича Гоголя из сборника "Вечера на хуторе близ Диканьки".

Дополнительная информация:
Страна: СССР .
Выпущено: Главная редакция литературно-драматических программ ЦТ.
Автор: Николай Гоголь.
Релиз

Качество видео:...TVRip
Формат:.................AVI
Видео:..720x544 (1.32:1), 25 fps, XviD build 73 ~1902 kbps avg, 0.19 bit/pixel
Аудио:..48 kHz, MPEG Layer 3, 2 ch, ~128.00 kbps avg

Отчет Media Info

General
Complete name : Propavshaya.gramota.1974.XviD.TVRip.fenixclub.avi
Format : AVI
Format/Info : Audio Video Interleave
File size : 300 MiB
Duration : 20mn 34s
Overall bit rate : 2 040 Kbps
Video
ID : 0
Format : MPEG-4 Visual
Format profile : Advanced Simple@L5
Format settings, BVOP : 2
Format settings, QPel : No
Format settings, GMC : No warppoints
Format settings, Matrix : Default (H.263)
Codec ID : XVID
Codec ID/Hint : XviD
Duration : 20mn 34s
Bit rate : 1 902 Kbps
Width : 720 pixels
Height : 544 pixels
Display aspect ratio : 4:3
Frame rate : 25.000 fps
Color space : YUV
Chroma subsampling : 4:2:0
Bit depth : 8 bits
Scan type : Progressive
Compression mode : Lossy
Bits/(Pixel*Frame) : 0.194
Stream size : 280 MiB (93%)
Writing library : XviD 73
Audio
ID : 1
Format : MPEG Audio
Format version : Version 1
Format profile : Layer 3
Mode : Joint stereo
Mode extension : MS Stereo
Codec ID : 55
Codec ID/Hint : MP3
Duration : 20mn 34s
Bit rate mode : Constant
Bit rate : 128 Kbps
Channel(s) : 2 channels
Sampling rate : 48.0 KHz
Compression mode : Lossy
Delay relative to video : 200ms
Stream size : 18.8 MiB (6%)
Alignment : Split accross interleaves
Interleave, duration : 40 ms (1.00 video frame)
Interleave, preload duratio : 500 ms.

Скриншоты

Альтернативный хост




Показать сообщения:    

Текущее время: 05-Дек 23:36

Часовой пояс: UTC + 3


Вы не можете начинать темы
Вы не можете отвечать на сообщения
Вы не можете редактировать свои сообщения
Вы не можете удалять свои сообщения
Вы не можете голосовать в опросах
Вы не можете прикреплять файлы к сообщениям
Вы не можете скачивать файлы