Кроткая (Ирина Керученко) [2013 г., драма, SATRip] Московский театр юного зрителя


 

[Цитировать]

Кроткая (2 части) Название театра: Московский театр юного зрителя.
Жанр: драма.
Год выпуска: 2013.
Продолжительность: 01:07:12 + 01:06:56 (02:14:08).
Режиссеры: Ирина Керученко.
Действующие лица и исполнители:
Он - заслуженный артист России Игорь Гордин,
Она - Елена Лямина,
Лукерья - Марина Зубанова.
Описание:
"Кроткая" - это спектакль о страшном и сложном духовном пути двух человеческих душ, двух человеческих тел - бесприютных и одиноких, нуждающихся друг в друге бесконечно и гибнущих в этой близости, в этой ее невозможности. Жгучее желание повиновения и жажда власти над чужой жизнью толкает на все большую жестокость. Косность, страх пренебрежения, боль презрения вымарывают из души любовь и свет. Жестокость становится нормой отношений. Неспособность любить и страстное желание любви – вечной мукой. Страшная обыденность этих отношений сквозь ткань спектакля мерцает иным, вечным смыслом, оборачивается поединком Гордыни и Кротости. И Гордыня разбивается о божественный закон мироздания. Разбивается вдребезги, в пыль, в ничто.
Дополнительная информация:
Страна: Россия .
Выпущено: Продюсерская компания "Кино и Театр", © Правительство Москвы.
Награды и номинации:
• В 2011 году Игорь Гордин стал Лауреатом национальной театральной премии "Золотая маска" в номинации "Лучшая мужская роль".
Автор: Федор Достоевский.
Художник-постановщик: Мария Утробина.
В спектакле использована музыка: Олега Карвайчука, Арво Пярта, Эйтора Вилла-Лобоса.
Премьера спектакля состоялась 6 октября 2009 года.
Оператор-постановщик: Петр Духовский.

О спектакле.
Релиз

Качество: SATRip
Формат: AVI
Видео:..720x400 (1.80:1), 25 fps, XviD build 73 ~1418 kbps avg, 0.20 bit/pixel
Аудио:..44.100 kHz, MPEG Layer 3, 2 ch, ~128.00 kbps avg

Отчет Media Info

1-я часть
Общее
Полное имя : Krotkaya_Moskovskij.TYuZ.(2.chasti.iz.2).2013.XviD.SATRip.fenixclub\Krotkaya_Moskovskij.TYuZ.(1-ya.chast').2013.avi
Format : AVI
Format/Info : Audio Video Interleave
File size : 748 MiB
Duration : 1h 7mn
Overall bit rate : 1 556 Kbps
Video
ID : 0
Format : MPEG-4 Visual
Format profile : Advanced Simple@L5
Format settings, BVOP : 2
Format settings, QPel : No
Format settings, GMC : No warppoints
Format settings, Matrix : Default (H.263)
Codec ID : XVID
Codec ID/Hint : XviD
Duration : 1h 7mn
Bit rate : 1 419 Kbps
Width : 720 pixels
Height : 400 pixels
Display aspect ratio : 16:9
Frame rate : 25.000 fps
Color space : YUV
Chroma subsampling : 4:2:0
Bit depth : 8 bits
Scan type : Progressive
Compression mode : Lossy
Bits/(Pixel*Frame) : 0.197
Stream size : 682 MiB (91%)
Writing library : XviD 73
Audio
ID : 1
Format : MPEG Audio
Format version : Version 1
Format profile : Layer 3
Mode : Joint stereo
Mode extension : MS Stereo
Codec ID : 55
Codec ID/Hint : MP3
Duration : 1h 7mn
Bit rate mode : Constant
Bit rate : 128 Kbps
Channel(s) : 2 channels
Sampling rate : 44.1 KHz
Compression mode : Lossy
Stream size : 61.5 MiB (8%)
Alignment : Split accross interleaves
Interleave, duration : 40 ms (1.00 video frame)
Interleave, preload duratio : 500 ms
Writing library : LAME3.98.2
2-я часть
Общее
Полное имя : Krotkaya_Moskovskij.TYuZ.(2.chasti.iz.2).2013.XviD.SATRip.fenixclub\Krotkaya_Moskovskij.TYuZ.(2-ya.chast').2013.avi
Format : AVI
Format/Info : Audio Video Interleave
File size : 745 MiB
Duration : 1h 6mn
Overall bit rate : 1 556 Kbps
Video
ID : 0
Format : MPEG-4 Visual
Format profile : Advanced Simple@L5
Format settings, BVOP : 2
Format settings, QPel : No
Format settings, GMC : No warppoints
Format settings, Matrix : Default (H.263)
Codec ID : XVID
Codec ID/Hint : XviD
Duration : 1h 6mn
Bit rate : 1 419 Kbps
Width : 720 pixels
Height : 400 pixels
Display aspect ratio : 16:9
Frame rate : 25.000 fps
Color space : YUV
Chroma subsampling : 4:2:0
Bit depth : 8 bits
Scan type : Progressive
Compression mode : Lossy
Bits/(Pixel*Frame) : 0.197
Stream size : 679 MiB (91%)
Writing library : XviD 73
Audio
ID : 1
Format : MPEG Audio
Format version : Version 1
Format profile : Layer 3
Mode : Joint stereo
Mode extension : MS Stereo
Codec ID : 55
Codec ID/Hint : MP3
Duration : 1h 6mn
Bit rate mode : Constant
Bit rate : 128 Kbps
Channel(s) : 2 channels
Sampling rate : 44.1 KHz
Compression mode : Lossy
Stream size : 61.3 MiB (8%)
Alignment : Split accross interleaves
Interleave, duration : 40 ms (1.00 video frame)
Interleave, preload duratio : 500 ms
Writing library : LAME3.98.2

Скриншоты

Альтернативный хост




Показать сообщения:    

Текущее время: 03-Дек 18:42

Часовой пояс: UTC + 3


Вы не можете начинать темы
Вы не можете отвечать на сообщения
Вы не можете редактировать свои сообщения
Вы не можете удалять свои сообщения
Вы не можете голосовать в опросах
Вы не можете прикреплять файлы к сообщениям
Вы не можете скачивать файлы