Картина (Иосиф Райхельгауз) [1989 г., трагикомедия, телеспектакль, DVDRip]


 

[Цитировать]

Картина К 80-летию со дня рождения Виктора Иосифовича Славкина.
(1 августа 1935 - 16 марта 2014)

Год выпуска: 1989.
Жанр: трагикомедия, телеспектакль.
Продолжительность: 00:51:21.
Режиссер-постановщик: Иосиф Райхельгауз.
Действующие лица и исполнители:
Гость - Сергей Юрский,
Хозяин - Петр Щербаков.
О спектакле:
Виктор Славкин, известный своими пьесами "Взрослая дочь молодого человека" и "Серсо" начинал свою драматургическую деятельность с абсурдистских пьес, которые были написаны под влиянием Мрожека и Ионеско.
Абсурдистское начало "Картины" в том, что художник-самоучка когда-то написал картину, ее приобрела директор гостиницы, чтобы повесить в номере. И художник всю жизнь приходит в этот номер и беседует с каждым поселившимся в нем человеком о своей картине. А наполнено всё это советским бытом. Провинциальный городок, средней руки номер, в нем – командированный инженер, у него знакомые зрителю проблемы, а тут является художник и непонятно чего хочет. Но встреча двух мужчин завершилась твердым намерением последнего написать главную картину своей жизни.

Дополнительная информация:
Страна: СССР .
Выпущено: Главная редакция литературно-драматических программ ЦТ.
Автор сценария:
Виктор Славкин
.
Композитор: Виктор Илюшин.
Художник: Ольга Гончаренко.
Операторы: Александр Пугачев, Юрий Исаков.

Релиз
Рип lesik689.

Качество видео:...DVDRip
Формат:.................AVI
Видео:..704x528 (1.33:1), 25 fps, XviD build 50 ~1753 kbps avg, 0.19 bit/pixel
Аудио:..48 kHz, MPEG Layer 3, 2 ch, ~128.00 kbps avg

Отчет Media Info

General
Complete name : Kartina.1989.XviD.DVDRip.fenixclub.avi
Format : AVI
Format/Info : Audio Video Interleave
File size : 695 MiB
Duration : 51mn 20s
Overall bit rate : 1 891 Kbps
Writing library : VirtualDub build 30009/release
Video
ID : 0
Format : MPEG-4 Visual
Format profile : Advanced Simple@L5
Format settings, BVOP : 2
Format settings, QPel : No
Format settings, GMC : No warppoints
Format settings, Matrix : Default (H.263)
Codec ID : XVID
Codec ID/Hint : XviD
Duration : 51mn 20s
Bit rate : 1 753 Kbps
Width : 704 pixels
Height : 528 pixels
Display aspect ratio : 4:3
Frame rate : 25.000 fps
Color space : YUV
Chroma subsampling : 4:2:0
Bit depth : 8 bits
Scan type : Progressive
Compression mode : Lossy
Bits/(Pixel*Frame) : 0.189
Stream size : 644 MiB (93%)
Writing library : XviD 1.2.1 (UTC 2008-12-04)
Audio
ID : 1
Format : MPEG Audio
Format version : Version 1
Format profile : Layer 3
Mode : Joint stereo
Mode extension : MS Stereo
Codec ID : 55
Codec ID/Hint : MP3
Duration : 51mn 20s
Bit rate mode : Constant
Bit rate : 128 Kbps
Channel(s) : 2 channels
Sampling rate : 48.0 KHz
Compression mode : Lossy
Stream size : 47.0 MiB (7%)
Alignment : Split accross interleaves
Interleave, duration : 40 ms (1.00 video frame)
Interleave, preload duratio : 500 ms

Скриншоты

Альтернативный хост




Показать сообщения:    

Текущее время: 08-Дек 11:01

Часовой пояс: UTC + 3


Вы не можете начинать темы
Вы не можете отвечать на сообщения
Вы не можете редактировать свои сообщения
Вы не можете удалять свои сообщения
Вы не можете голосовать в опросах
Вы не можете прикреплять файлы к сообщениям
Вы не можете скачивать файлы