Сказка о царе Салтане (Игорь Игнатьев) [2010 г., сказка, SATRip] Вологодский театр кукол "Теремок"


 

[Цитировать]

Сказка о царе Салтане Название театра: Вологодский театр кукол "Теремок".
Год выпуска: 2010.
Жанр: сказка.
Продолжительность: 00:51:33.
Режиссер: заслуженный деятель искусств России Игорь Игнатьев.
В ролях:
Валентин Овсянников, Антон Диев, Марина Ефремова, Ольга Ледкова, Елена Тадлова, Андрей Васильев.
О спектакле:
Спектакль по сказке А. Пушкина "Сказка о царе Салтане, о сыне его славном и могучем богатыре князе Гвидоне Салтановиче и о прекрасной царевне Лебеди".
Дополнительная информация:
Страна: Россия .
Запись с XVII Всероссийского Пушкинского театрального фестиваля (Псков, 2010).
Автор: Александр Пушкин.
Художник: заслуженный деятель искусств России Анна Игнатьева.
Композитор: заслуженный работник культуры России Дмитрий Гусев.
Художник-гример: С. Чурсина.
Балетмейстер: Н. Петрова-Рудая.
Премьера спектакля состоялась 9 Мая 2007 года.

О спектакле.
Релиз

Качество видео:...SATRip
Формат:.................AVI
Видео:..640x384 (1.67:1), 25 fps, XviD build 73 ~1758 kbps avg, 0.29 bit/pixel
Аудио:..44.100 kHz, MPEG Layer 3, 2 ch, ~128.00 kbps avg

Отчет Media Info

General
Complete name : Skazka.o.care.Saltane_Vologodskij.teatr.kukol.Teremok.2010.XviD.TVRip.fenixclub.avi
Format : AVI
Format/Info : Audio Video Interleave
File size : 699 MiB
Duration : 51mn 32s
Overall bit rate : 1 896 Kbps
Video
ID : 0
Format : MPEG-4 Visual
Format profile : Advanced Simple@L5
Format settings, BVOP : 2
Format settings, QPel : No
Format settings, GMC : No warppoints
Format settings, Matrix : Default (H.263)
Codec ID : XVID
Codec ID/Hint : XviD
Duration : 51mn 32s
Bit rate : 1 759 Kbps
Width : 640 pixels
Height : 384 pixels
Display aspect ratio : 5:3
Frame rate : 25.000 fps
Color space : YUV
Chroma subsampling : 4:2:0
Bit depth : 8 bits
Scan type : Progressive
Compression mode : Lossy
Bits/(Pixel*Frame) : 0.286
Stream size : 648 MiB (93%)
Writing library : XviD 73
Audio
ID : 1
Format : MPEG Audio
Format version : Version 1
Format profile : Layer 3
Mode : Joint stereo
Mode extension : MS Stereo
Codec ID : 55
Codec ID/Hint : MP3
Duration : 51mn 32s
Bit rate mode : Constant
Bit rate : 128 Kbps
Channel(s) : 2 channels
Sampling rate : 44.1 KHz
Compression mode : Lossy
Stream size : 47.2 MiB (7%)
Alignment : Split accross interleaves
Interleave, duration : 40 ms (1.00 video frame)
Interleave, preload duratio : 500 ms
Writing library : LAME3.98.2

Скриншоты

Альтернативный хост




Показать сообщения:    

Текущее время: 11-Дек 14:59

Часовой пояс: UTC + 3


Вы не можете начинать темы
Вы не можете отвечать на сообщения
Вы не можете редактировать свои сообщения
Вы не можете удалять свои сообщения
Вы не можете голосовать в опросах
Вы не можете прикреплять файлы к сообщениям
Вы не можете скачивать файлы