Распутник (Александр Коневский) [2010 г., философско-эротическая комедия, SATRip] Московский областной государственный драматический камерный театр


 

[Цитировать]

Распутник (2 действия) Название театра: Московский областной государственный драматический камерный театр.
Год выпуска: 2010.
Жанр: философско-эротическая комедия.
Продолжительность: 01:04:40 + 01:01:02 (02:05:42).
Режиссер: Александр Коневский.
Действующие лица и исполнители:
Дени Дидро - заслуженный артист России Григорий Фирсов,
Анна-Доротея Тербуш - заслуженная артистка России Елена Цагина,
Баронне - Сергей Губанов,
Антуанетта Дидро - заслуженная артистка России Елена Михеева,
Мадемуазель Гольбах - Наталья Кукушкина,
Анжелика Дидро - Юлия Пестова.
О спектакле:
Комедийная пьеса Шмитта дает почти фарсовое решение темы обольщения. В основу сюжета легло несколько исторических анекдотов.
Франция середины 18 века. Знаменитый вольнодумец Дени Дидро удалился из Парижа в имение барона Гольбаха, куда перевез коллекцию картин, собираемую им по заказу русской императрицы Екатерины. Здесь же появляется мадам Тербуш – художница, желающая написать портрет великого философа. Однако отличающийся известной свободой нравов Дидро несколько смущен – художница желает писать его обнаженным. Провозгласив царство свободы, отступать некуда – и сеанс начался. Но он мужчина, она – женщина, при чем довольно соблазнительная и к тому же оказавшаяся остроумным и достойным собеседником. И случается то, что и должно произойти – их неудержимо тянет друг к дугу. Далее на Дидро обрушивается такой поток случайностей и обстоятельств этого безумного дня, что вся его философская доктрина начинает трещать по швам. И, неизвестно, чем бы все это закончилось, если бы не вмешалась во все это любовь.

Дополнительная информация:
Страна: Россия .
Выпущено: Paragram Pictures.
Автор: Эрик-Эммануэль Шмитт.
Перевод Александра Браиловского.
Художник: Кира Бабанина.
Музыкальное оформление: Марина Шмотова.
Партия виолончели: Татьяна Шолохова.
В спектакле звучит музыка: Жана-Мари Леклера, Жана Батиста Сеналье, Ж. Барьера, Жана Кларка.
Художественный руководитель театра: заслуженный артист России, заслуженный деятель искусств России Валерий Якунин.

О спектакле.
Релиз

Качество видео:...SATRip
Формат:.................AVI
Видео:..720x416 (1.73:1), 25 fps, XviD build 73 ~1524 kbps avg, 0.20 bit/pixel
Аудио:..44.100 kHz, MPEG Layer 3, 2 ch, ~128.00 kbps avg

Отчет Media Info

1-е действие
General
Complete name : Rasputnik_Moskovskij.kamernyj.teatr.(2.dejstvija).2010.XviD.SATRip.fenixclub.com\Rasputnik_Moskovskij.kamernyj.teatr.(1-e.dejstvie).2010.avi
Format : AVI
Format/Info : Audio Video Interleave
File size : 769 MiB
Duration : 1h 4mn
Overall bit rate : 1 662 Kbps
Video
ID : 0
Format : MPEG-4 Visual
Format profile : Advanced Simple@L5
Format settings, BVOP : 2
Format settings, QPel : No
Format settings, GMC : No warppoints
Format settings, Matrix : Default (H.263)
Codec ID : XVID
Codec ID/Hint : XviD
Duration : 1h 4mn
Bit rate : 1 525 Kbps
Width : 720 pixels
Height : 416 pixels
Display aspect ratio : 1.731
Frame rate : 25.000 fps
Color space : YUV
Chroma subsampling : 4:2:0
Bit depth : 8 bits
Scan type : Progressive
Compression mode : Lossy
Bits/(Pixel*Frame) : 0.204
Stream size : 705 MiB (92%)
Writing library : XviD 73
Audio
ID : 1
Format : MPEG Audio
Format version : Version 1
Format profile : Layer 3
Mode : Joint stereo
Mode extension : MS Stereo
Codec ID : 55
Codec ID/Hint : MP3
Duration : 1h 4mn
Bit rate mode : Constant
Bit rate : 128 Kbps
Channel(s) : 2 channels
Sampling rate : 44.1 KHz
Compression mode : Lossy
Stream size : 59.2 MiB (8%)
Alignment : Split accross interleaves
Interleave, duration : 40 ms (1.00 video frame)
Interleave, preload duratio : 500 ms.
2-е действие
General
Complete name : Rasputnik_Moskovskij.kamernyj.teatr.(2.dejstvija).2010.XviD.SATRip.fenixclub.com\Rasputnik_Moskovskij.kamernyj.teatr.(2-e.dejstvie).2010.avi
Format : AVI
Format/Info : Audio Video Interleave
File size : 726 MiB
Duration : 1h 1mn
Overall bit rate : 1 662 Kbps
Video
ID : 0
Format : MPEG-4 Visual
Format profile : Advanced Simple@L5
Format settings, BVOP : 2
Format settings, QPel : No
Format settings, GMC : No warppoints
Format settings, Matrix : Default (H.263)
Codec ID : XVID
Codec ID/Hint : XviD
Duration : 1h 1mn
Bit rate : 1 525 Kbps
Width : 720 pixels
Height : 416 pixels
Display aspect ratio : 1.731
Frame rate : 25.000 fps
Color space : YUV
Chroma subsampling : 4:2:0
Bit depth : 8 bits
Scan type : Progressive
Compression mode : Lossy
Bits/(Pixel*Frame) : 0.204
Stream size : 666 MiB (92%)
Writing library : XviD 73
Audio
ID : 1
Format : MPEG Audio
Format version : Version 1
Format profile : Layer 3
Mode : Joint stereo
Mode extension : MS Stereo
Codec ID : 55
Codec ID/Hint : MP3
Duration : 1h 1mn
Bit rate mode : Constant
Bit rate : 128 Kbps
Channel(s) : 2 channels
Sampling rate : 44.1 KHz
Compression mode : Lossy
Stream size : 55.9 MiB (8%)
Alignment : Split accross interleaves
Interleave, duration : 40 ms (1.00 video frame)
Interleave, preload duratio : 500 ms.

Скриншоты

Альтернативный хост




Показать сообщения:    

Текущее время: 11-Дек 05:20

Часовой пояс: UTC + 3


Вы не можете начинать темы
Вы не можете отвечать на сообщения
Вы не можете редактировать свои сообщения
Вы не можете удалять свои сообщения
Вы не можете голосовать в опросах
Вы не можете прикреплять файлы к сообщениям
Вы не можете скачивать файлы