Говорящая машина (Глеб Селянин) [1970 г., детский телеспектакль, TVRip]


 

[Цитировать]

Говорящая машина Год выпуска: 1970.
Жанр: детский телеспектакль.
Продолжительность: 00:30:06.
Режиссеры: Глеб Селянин.
Действующие лица и исполнители:
Профессор - Николай Боярский,
Мартин, его племянник - Наталья Маркова,
Художник Берингер - Алексей Ершов,
Мясник - Всеволод Кузнецов,
Амалия - Елизавета Уварова,
Папа Шайбль - Алексей Савостьянов,
Мама Шайбль - Ирина Зарубина,
Аглая - Лидия Штыкан,
Нана - Наталья Бродская,
Клара - Елена Ефимова,
Марта - Татьяна Бедова,
Запятая - Нина Потаповская,
От автора - Георгий Тейх.
Описание:
Профессор Розкам создал удивительную машину, способную переводить язык зверей и птиц на человеческий и наоборот. Действие своего детища изобретатель решил опробовать на питомцах соседей. Поначалу эксперимент казался удачным, соседи узнали много интересного и порой неожиданного о своих воспитанниках. Но дальнейшие события показали, что нельзя таким образом вмешиваться в жизнь животных, где существуют свои собственные взаимоотношения.
Дополнительная информация:
Страна: СССР .
Выпущено: Ленинградское телевидение.
Автор: Джеймс Крюс.
Художник-постановщик: Геннадий Романов.
Оператор: Юрий Соколов.

Релиз

Качество: TVRip
Формат: AVI
Видео: 640x480 (1.33:1), 25 fps, XviD MPEG-4 ~1381 kbps avg, 0.18 bit/pixel
Аудио: 44.100 kHz, MPEG Layer 3, 2 ch, ~128.00 kbps avg

Отчет Media Info

General
Complete name : Govoryawaya.mashina.1970.XviD.TVRip.fenixclub.avi
Format : AVI
Format/Info : Audio Video Interleave
File size : 327 MiB
Duration : 30mn 6s
Overall bit rate : 1 519 Kbps
Video
ID : 0
Format : MPEG-4 Visual
Format profile : Advanced Simple@L5
Format settings, BVOP : 2
Format settings, QPel : No
Format settings, GMC : No warppoints
Format settings, Matrix : Default (H.263)
Codec ID : XVID
Codec ID/Hint : XviD
Duration : 30mn 6s
Bit rate : 1 381 Kbps
Width : 640 pixels
Height : 480 pixels
Display aspect ratio : 4:3
Frame rate : 25.000 fps
Color space : YUV
Chroma subsampling : 4:2:0
Bit depth : 8 bits
Scan type : Progressive
Compression mode : Lossy
Bits/(Pixel*Frame) : 0.180
Stream size : 297 MiB (91%)
Writing library : XviD 73
Audio
ID : 1
Format : MPEG Audio
Format version : Version 1
Format profile : Layer 3
Mode : Joint stereo
Mode extension : MS Stereo
Codec ID : 55
Codec ID/Hint : MP3
Duration : 30mn 6s
Bit rate mode : Constant
Bit rate : 128 Kbps
Channel(s) : 2 channels
Sampling rate : 44.1 KHz
Compression mode : Lossy
Stream size : 27.6 MiB (8%)
Alignment : Split accross interleaves
Interleave, duration : 40 ms (1.00 video frame)
Interleave, preload duratio : 500 ms.

Скриншоты

Альтернативный хост




Показать сообщения:    

Текущее время: 06-Дек 17:10

Часовой пояс: UTC + 3


Вы не можете начинать темы
Вы не можете отвечать на сообщения
Вы не можете редактировать свои сообщения
Вы не можете удалять свои сообщения
Вы не можете голосовать в опросах
Вы не можете прикреплять файлы к сообщениям
Вы не можете скачивать файлы