Леший (Борис Морозов) [1995 г., комедия, VHSRip] Государственный академический Малый театр


 

[Цитировать]

Леший Название театра: Государственный академический Малый театр.
Год выпуска: 1995.
Жанр: комедия.
Продолжительность: 02:32:14.
Режиссеры: Борис Морозов.
Действующие лица и исполнители:
Серебряков - Юрий Каюров,
Елена Андреевна - Людмила Титова,
Софья Александровна - Ольга Кузнецова,
Войницкая - Ирина Ликсо,
Войницкий - Юрий Соломин,
Желтухин - Владимир Богин,
Юля - Ирина Тельпугова,
Орловский - Вячеслав Езепов,
Федор Иванович - Дмитрий Назаров,
Хрущов - Александр Михайлов,
Дядин - Сергей Еремеев.
Описание:
Пьеса Чехова "Леший", написанная в 1889 году, была преддверием знаменитого "Дяди Вани".
Сам Чехов писал о "Лешем": "Вывожу в комедии хороших, здоровых людей, наполовину симпатичных; конец благополучный. Общий тон – сплошная лирика".

Дополнительная информация:
Страна: Россия .
Автор: Антон Чехов.
Художник-постановщик: Иосиф Сумбаташвили.
Композитор: Григорий Гоберник.
Прeмьера спектакля: 6 ноября 1990 года.

Релиз

Качество: VHSRip
Формат: AVI
Видео: 640x480 (1.33:1), 25 fps, XviD MPEG-4 ~1236 kbps avg, 0.16 bit/pixel
Аудио: 44.100 kHz, MPEG Layer 3, 2 ch, ~128.00 kbps avg

Отчет Media Info

General
Complete name : Leshij_Malyj.teatr.1995.XviD.VHSRip.fenixclub.avi
Format : AVI
Format/Info : Audio Video Interleave
File size : 1.46 GiB
Duration : 2h 32mn
Overall bit rate : 1 374 Kbps
Video
ID : 0
Format : MPEG-4 Visual
Format profile : Advanced Simple@L5
Format settings, BVOP : 2
Format settings, QPel : No
Format settings, GMC : No warppoints
Format settings, Matrix : Default (H.263)
Codec ID : XVID
Codec ID/Hint : XviD
Duration : 2h 32mn
Bit rate : 1 237 Kbps
Width : 640 pixels
Height : 480 pixels
Display aspect ratio : 4:3
Frame rate : 25.000 fps
Color space : YUV
Chroma subsampling : 4:2:0
Bit depth : 8 bits
Scan type : Progressive
Compression mode : Lossy
Bits/(Pixel*Frame) : 0.161
Stream size : 1.31 GiB (90%)
Writing library : XviD 73
Audio
ID : 1
Format : MPEG Audio
Format version : Version 1
Format profile : Layer 3
Mode : Joint stereo
Mode extension : MS Stereo
Codec ID : 55
Codec ID/Hint : MP3
Duration : 2h 32mn
Bit rate mode : Constant
Bit rate : 128 Kbps
Channel(s) : 2 channels
Sampling rate : 44.1 KHz
Compression mode : Lossy
Stream size : 139 MiB (9%)
Alignment : Split accross interleaves
Interleave, duration : 40 ms (1.00 video frame)
Interleave, preload duratio : 500 ms
Writing library : LAME3.98 (beta)

Скриншоты

Альтернативный хост




Показать сообщения:    

Текущее время: 09-Дек 20:28

Часовой пояс: UTC + 3


Вы не можете начинать темы
Вы не можете отвечать на сообщения
Вы не можете редактировать свои сообщения
Вы не можете удалять свои сообщения
Вы не можете голосовать в опросах
Вы не можете прикреплять файлы к сообщениям
Вы не можете скачивать файлы