Деревья умирают стоя (Дина Лукова) [1977, трагикомедия, телеспектакль, TVRip]


 

[Цитировать]

Деревья умирают стоя Год выпуска: 1977.
Жанр: трагикомедия, телеспектакль.
Продолжительность: 02:33:44.
Режиссер-постановщик: Дина Лукова.
Действующие лица и исполнители:
Бабушка - Вера Улик,
Сеньор Бальбоа - Лев Лемке,
Маурисьо - Борис Соколов,
Изабелла-Марта - Эра Зиганшина,
Элена - Е.Логинова,
Амелия - М. Лобанова,
Пастор-моряк - Изиль Заблудовский,
Фокусник-певец - Александр Хочинский,
Хеновева - М. Тупикова,
Фелиса - Т. Коновалова,
Другой - В. Матвеев,
Вор - А. Акулич.
В спектакле принимают участие солисты оперной студии Консерватории.
О спектакле:
По мотивам пьесы испанского драматурга Алехандро Касона.
Героиня спектакля - пожилая женщина, единственное желание которой увидеть перед смертью давно утраченного любимого внука (поссорившись с дедом, он покинул отчий дом).
Чтобы исполнить ее желание, беззаветно любящий муж идет на авантюру: заказывает в некой фирме, чья основная работа - исполнение желаний, "устроить" эту встречу...
И он появляется - красивый, успешный, добрый, заботливый - эталон всех внуков на земле, да еще с прекрасной девушкой. Все чудесно, бабушка безмерно счастлива, но в "сладкую ложь" неожиданно врывается горькая правда жизни, и запланированный ход событий принимает неожиданный поворот... Возвращается настоящий внук.

Дополнительная информация:
Страна: СССР .
Выпущено: Ленинградское телевидение.
Автор: Алехандро Касон.
Использованы стихи испанских, португальских и мексиканских поэтов.
Композитор: Александр Журбин.
Художник-постановщик: Сергей Скинтеев.
Балетмейстер: С.Сидоров.
Ведущие операторы: Михаил Филиппов, Владимир Дединкин.

Релиз
Рип lesik689.

Качество видео:...TVRip
Формат:.................AVI
Видео:..640x480 (1.33:1), 25 fps, XviD MPEG-4 ~1222 kbps avg, 0.16 bit/pixel
Аудио:..44.100 kHz, MPEG Layer 3, 2 ch, ~128.00 kbps avg

Отчет Media Info

General
Complete name : Derev'ya.umirayut.stoya.1977.XviD.TVRip.fenixclub.avi
Format : AVI
Format/Info : Audio Video Interleave
File size : 1.46 GiB
Duration : 2h 33mn
Overall bit rate : 1 360 Kbps
Writing application : VirtualDubModRus 1.5.10.2 (build 2542/release)
Writing library : VirtualDub build 32842/release
Video
ID : 0
Format : MPEG-4 Visual
Format profile : Advanced Simple@L5
Format settings, BVOP : 2
Format settings, QPel : No
Format settings, GMC : No warppoints
Format settings, Matrix : Default (MPEG)
Codec ID : XVID
Codec ID/Hint : XviD
Duration : 2h 33mn
Bit rate : 1 222 Kbps
Width : 640 pixels
Height : 480 pixels
Display aspect ratio : 4:3
Frame rate : 25.000 fps
Color space : YUV
Chroma subsampling : 4:2:0
Bit depth : 8 bits
Scan type : Progressive
Compression mode : Lossy
Bits/(Pixel*Frame) : 0.159
Stream size : 1.31 GiB (90%)
Writing library : XviD 73
Audio
ID : 1
Format : MPEG Audio
Format version : Version 1
Format profile : Layer 3
Mode : Joint stereo
Mode extension : MS Stereo
Codec ID : 55
Codec ID/Hint : MP3
Duration : 2h 33mn
Bit rate mode : Constant
Bit rate : 128 Kbps
Channel(s) : 2 channels
Sampling rate : 44.1 KHz
Compression mode : Lossy
Stream size : 141 MiB (9%)
Alignment : Split accross interleaves
Interleave, duration : 40 ms (1.00 video frame)
Interleave, preload duratio : 500 ms
Writing library : LAME

Скриншоты

Альтернативный хост




Показать сообщения:    

Текущее время: 09-Дек 14:41

Часовой пояс: UTC + 3


Вы не можете начинать темы
Вы не можете отвечать на сообщения
Вы не можете редактировать свои сообщения
Вы не можете удалять свои сообщения
Вы не можете голосовать в опросах
Вы не можете прикреплять файлы к сообщениям
Вы не можете скачивать файлы