Князь Серебряный (Виталий Иванов) [2000 г., историческая драма, TVRip] Государственный академический Малый театр


 

[Цитировать]

Князь Серебряный Название театра: Государственный академический Малый театр.
Год выпуска: 2000.
Жанр: историческая драма.
Продолжительность: 02:34:31.
Режиссеры: Виталий Иванов.
Действующие лица и исполнители:
Грозный Иван Васильевич, царь - Ярослав Барышев,
Онуфриевна, его мамка - Татьяна Панкова,
Годунов Борис Федорович - Владимир Сафронов,
Князь Афанасий Иванович Вяземский - Олег Мартьянов,
Басманов Алексей - Владимир Носик,
Басманов Федор Алексеевич, его сын - Александр Вершинин,
Малюта Скуратов-Бельский - Геннадий Сергеев,
Скуратов Максим, его сын - Сергей Вещев,
Хомяк, подручный Малюты - Антон Хомятов,
Василий Блаженный - Виктор Бунаков,
Князь Никита Романович Серебряный - Александр Белый,
Морозов Дружина Андреевич - Афанасий Кочетков,
Елена, его жена - Ирина Тельпугова.
Описание:
Одна из самых мрачных страниц русской истории – эпоха опричнины. Но в любую эпоху находятся люди, которые "берегут честь смолоду" и не боятся быть самими собой.
Дополнительная информация:
Страна: Россия .
Автор: Алексей Толстой.
Режиссер-постановщик и автор инсценировки: Виталий Иванов.
Художник-постановщик: Евгений Куманьков.
Балетмейстер: П. Гродницкий.
Сценическое движение: Н. Павловский.
Художник по свету: А. Ремизов.
В спектакле звучат стихиры Ивана Грозного.
Прeмьера спектакля: 6 ноября 1990 года.

О спектакле.
Релиз

Качество: TVRip
Формат: AVI
Видео: 640x480 (1.33:1), 25 fps, XviD build 73 ~1218 kbps avg, 0.16 bit/pixel
Аудио: 44.100 kHz, MPEG Layer 3, 2 ch, ~128.00 kbps avg

Отчет Media Info

General
Complete name : Knyaz'.Serebryanyj_Malyj.teatr.2000.XviD.TVRip.fenixclub.avi
Format : AVI
Format/Info : Audio Video Interleave
File size : 1.46 GiB
Duration : 2h 34mn
Overall bit rate : 1 356 Kbps
Video
ID : 0
Format : MPEG-4 Visual
Format profile : Advanced Simple@L5
Format settings, BVOP : 2
Format settings, QPel : No
Format settings, GMC : No warppoints
Format settings, Matrix : Default (H.263)
Codec ID : XVID
Codec ID/Hint : XviD
Duration : 2h 34mn
Bit rate : 1 219 Kbps
Width : 640 pixels
Height : 480 pixels
Display aspect ratio : 4:3
Frame rate : 25.000 fps
Color space : YUV
Chroma subsampling : 4:2:0
Bit depth : 8 bits
Scan type : Progressive
Compression mode : Lossy
Bits/(Pixel*Frame) : 0.159
Stream size : 1.32 GiB (90%)
Writing library : XviD 73
Audio
ID : 1
Format : MPEG Audio
Format version : Version 1
Format profile : Layer 3
Mode : Joint stereo
Mode extension : MS Stereo
Codec ID : 55
Codec ID/Hint : MP3
Duration : 2h 34mn
Bit rate mode : Constant
Bit rate : 128 Kbps
Channel(s) : 2 channels
Sampling rate : 44.1 KHz
Compression mode : Lossy
Stream size : 141 MiB (9%)
Alignment : Split accross interleaves
Interleave, duration : 40 ms (1.00 video frame)
Interleave, preload duratio : 500 ms
Writing library : LAME3.98 (beta)

Скриншоты

Альтернативный хост




Показать сообщения:    

Текущее время: 06-Дек 15:06

Часовой пояс: UTC + 3


Вы не можете начинать темы
Вы не можете отвечать на сообщения
Вы не можете редактировать свои сообщения
Вы не можете удалять свои сообщения
Вы не можете голосовать в опросах
Вы не можете прикреплять файлы к сообщениям
Вы не можете скачивать файлы