Месяц в деревне (Юрий Маляцкий) [1968, драма, телеспектакль, WEB-DLRip]


 

[Цитировать]

Месяц в деревне Год выпуска: 1968.
Жанр: драма, телеспектакль.
Продолжительность: 01:21:04.
Режиссер-постановщик: Юрий Маляцкий.
Действующие лица и исполнители:
Ислаев, богатый помещик - В. Петров,
Наталья Петровна, его жена - Э. Попова,
Анна Семёновна, его мать - Л. Штыкан,
Верочка, воспитанница Ислаевых - А. Отморская,
Михаил Александрович Ракитин, друг дома - И. Озеров,
Алексей Николаевич Беляев, студент, учитель - Ю. Родионов,
Игнатий Ильич Шпигельский, доктор - Р. Катанский,
Афанасий Иванович Большинцов, сосед - М. Храбров.
О спектакле:
По одноименной пьесе Ивана Сергеевича Тургенева.
Что может быть лучше для счастливого семейного отдыха? Месяц, проведённый в деревне! Всё дышит, обволакивает летней негой, и ничто не предвещает грозы. Но Любовь всегда как гром среди ясного неба. Она вторгается в ум и сердце героини и нарушает покой воспитанницы, друга семьи, мужа, и, конечно, самого предмета обожания - юного учителя её маленького сына.

Дополнительная информация:
Страна: СССР .
Выпущено: Ленинградское телевидение.
Художник: Александр Евграфов.
Художник по костюмам: Р. Варшавская.
Ведущий оператор: М. Семёнов.
Релиз
Рип lesik689.

Качество видео:...WEB-DLRip
Формат:.................AVI
Видео:..640x480 (1.33:1), 25 fps, XviD build 64 ~1698 kbps avg, 0.22 bit/pixel
Аудио:..44.100 kHz, MPEG Layer 3, 2 ch, ~128.00 kbps avg

Отчет Media Info

General
Complete name : Mesyats.v.derevne.1968.XviD.WEB-DLRip.fenixclub.avi
Format : AVI
Format/Info : Audio Video Interleave
File size : 1.42 GiB
Duration : 1h 39mn
Overall bit rate : 2 036 Kbps
Video
ID : 0
Format : MPEG-4 Visual
Format profile : Advanced Simple@L5
Format settings, BVOP : 1
Format settings, QPel : No
Format settings, GMC : No warppoints
Format settings, Matrix : Default (MPEG)
Codec ID : XVID
Codec ID/Hint : XviD
Duration : 1h 39mn
Bit rate : 1 903 Kbps
Width : 640 pixels
Height : 480 pixels
Display aspect ratio : 4:3
Frame rate : 25.000 fps
Color space : YUV
Chroma subsampling : 4:2:0
Bit depth : 8 bits
Scan type : Progressive
Compression mode : Lossy
Bits/(Pixel*Frame) : 0.248
Stream size : 1.32 GiB (93%)
Writing library : XviD 64
Audio
ID : 1
Format : MPEG Audio
Format version : Version 1
Format profile : Layer 3
Mode : Joint stereo
Mode extension : MS Stereo
Codec ID : 55
Codec ID/Hint : MP3
Duration : 1h 39mn
Bit rate mode : Constant
Bit rate : 128 Kbps
Channel(s) : 2 channels
Sampling rate : 44.1 KHz
Compression mode : Lossy
Stream size : 90.9 MiB (6%)
Alignment : Split accross interleaves
Interleave, duration : 500 ms (12.50 video frames)
Interleave, preload duratio : 999 ms.

Скриншоты


Альтернативный хост





Показать сообщения:    

Текущее время: 03-Дек 09:48

Часовой пояс: UTC + 3


Вы не можете начинать темы
Вы не можете отвечать на сообщения
Вы не можете редактировать свои сообщения
Вы не можете удалять свои сообщения
Вы не можете голосовать в опросах
Вы не можете прикреплять файлы к сообщениям
Вы не можете скачивать файлы