Двенадцать писем из Дальногорска (И. Нетребчук) [1973, Музыкальное представление, телеспектакль, WEB-DLRip]


 

[Цитировать]

Двенадцать писем из Дальногорска Год выпуска: 1973.
Жанр: Музыкальное представление, телеспектакль.
Продолжительность: 01:21:04.
Режиссер: И. Нетребчук.
Действующие лица и исполнители:
Выпускники хореографического училища:
Оля
- М. Хмелева (поет В. Гирдюк),
Наташа - О. Матусова (поет Татьяна Васильева),
Игорь - В. Гуляев (поет Сергей Лейферкус),
Саша, муж, который не хочет, чтобы его жена танцевала - Ю. Скороходов,
Володя, молодой композитор, который любит не только музыку - В. Федоров,
Нина Васильевна, балетмейстер - З. Виноградова,
Николай Николаевич, архитектор, который любит Нину Васильевну - В. Копылов,
Гавриил Петрович, хочет стать директором, но пока что "врио" - Герман Орлов,
Эмиль Самсоныч Барский, охотник за талантами - Р. Лебедев,
Сичкин, тенор, он же предместкома - И. Соркин,
Матрос, который не любит "Сильву" - В. Капула,
Матильда Ивановна Волна-Задунайская, она же Сильва - Гликерия Богданова-Чеснокова.
О спектакле:
Музыкальное представление по мюзиклу Андрея Петрова "Мы хотим танцевать".
Молодые герои Наташа, Оля и Игорь только-только окончили хореографическое училище и получили назначение в театр в Дальнегорск. Прихватив с собой талантливого, но робкого композитора Володю, молодые ниспровергатели старой, надоевшей им оперетты отправились создавать новое искусство. Кстати, шумный успех принесли спектаклю Андрея Петрова отнюдь не положительные герои, а как раз те, против которых ополчились наши молодые реформаторы: директор и Матильда Ивановна Волна-Задунайская в сочном исполнении Гликерии Богдановой-Чесноковой.

Дополнительная информация:
Страна: СССР .
Выпущено: Ленинградское телевидение.
Композитор: Андрей Петров.
Либретто Владимира Константинова и Бориса Рацера.
Сценарий и постановка: И. Нетребчук.
Художник-постановщик: И. Поляков.
Балетмейстеры: А. Полубенцев, С. Сидоров.
За роялем в роли рассказчика - композитор Андрей Петров.
Оператор-постановщик: Ю. Соколов.
Релиз
Рип lesik689.

Качество видео:...WEB-DLRip
Формат:.................AVI
Видео:..640x480 (1.33:1), 25 fps, XviD build 64 ~1698 kbps avg, 0.22 bit/pixel
Аудио:..44.100 kHz, MPEG Layer 3, 2 ch, ~128.00 kbps avg

Отчет Media Info

General
Complete name : Dvenadtsat'.pisem.iz.Dal'nogorska.1973.XviD.WEB-DLRip.fenixclub.avi
Format : AVI
Format/Info : Audio Video Interleave
File size : 1.04 GiB
Duration : 1h 21mn
Overall bit rate : 1 836 Kbps
Video
ID : 0
Format : MPEG-4 Visual
Format profile : Advanced Simple@L5
Format settings, BVOP : 1
Format settings, QPel : No
Format settings, GMC : No warppoints
Format settings, Matrix : Default (MPEG)
Codec ID : XVID
Codec ID/Hint : XviD
Duration : 1h 21mn
Bit rate : 1 698 Kbps
Width : 640 pixels
Height : 480 pixels
Display aspect ratio : 4:3
Frame rate : 25.000 fps
Color space : YUV
Chroma subsampling : 4:2:0
Bit depth : 8 bits
Scan type : Progressive
Compression mode : Lossy
Bits/(Pixel*Frame) : 0.221
Stream size : 985 MiB (93%)
Writing library : XviD 64
Audio
ID : 1
Format : MPEG Audio
Format version : Version 1
Format profile : Layer 3
Mode : Joint stereo
Mode extension : MS Stereo
Codec ID : 55
Codec ID/Hint : MP3
Duration : 1h 21mn
Bit rate mode : Constant
Bit rate : 128 Kbps
Channel(s) : 2 channels
Sampling rate : 44.1 KHz
Compression mode : Lossy
Delay relative to video : 9ms
Stream size : 74.0 MiB (7%)
Alignment : Split accross interleaves
Interleave, duration : 40 ms (1.00 video frame)
Interleave, preload duratio : 500 ms.

Скриншоты


Альтернативный хост





Показать сообщения:    

Текущее время: 07-Дек 00:48

Часовой пояс: UTC + 3


Вы не можете начинать темы
Вы не можете отвечать на сообщения
Вы не можете редактировать свои сообщения
Вы не можете удалять свои сообщения
Вы не можете голосовать в опросах
Вы не можете прикреплять файлы к сообщениям
Вы не можете скачивать файлы