Моё имя и я (Юрий Еремин) [2014, драма, телеспектакль, SATRip]


 

[Цитировать]

Моё имя и я Год выпуска: 2014.
Жанр: драма, телеспектакль.
Продолжительность: 01:04:30.
Режиссеры: Юрий Еремин, Игорь Волосецкий.
Действующие лица и исполнители:
Николай Степанович - Борис Плотников,
Варвара - Ольга Остроумова,
Лакей - Алексей Горовацкий,
Лиза - Галина Боб,
Гнеккер - Роман Кириллов,
Катя - Юлия Хлынина,
Николай - Владимир Горюшин.
О спектакле:
Профессор медицины Николай Степанович сам поставил себе диагноз - неизлечимо болен. Он размышляет о своей судьбе, волей которой он обречен на смерть, пытается понять себя, вспоминает и переоценивает свою жизнь. Профессор обнаруживает, что его жена, когда-то страстно им любимая, и дочь раздражают его, кажутся мелочными и пустыми. Самым близким человеком оказывается приемная дочь Катя, которая пытается вывести профессора из нарастающего состояния безразличия к жизни и окружающим.
Дополнительная информация:
Страна: Россия .
Выпущено: ООО "ГолдМедиум" по заказу ГТРК "Культура".
По мотивам повести Антона Чехова "Скучная история" (Из записок старого человека).
Режиссёр-постановщик: Юрий Еремин.
Телевизионный режиссёр: Игорь Волосецкий.
Оператор-постановщик: Геннадий Иващенко.
Художник-постановщик: Елена Бочкова.
Релиз
Рип lesik689.

Качество видео:...SATRip
Формат:.................AVI
Видео:..704x400 (1.76:1), 25 fps, XviD build 64 ~1801 kbps avg, 0.26 bit/pixel
Аудио:..48 kHz, MPEG Layer 3, 2 ch, ~128.00 kbps avg

Отчет Media Info

General
Complete name : Moyo.imya.i.ya.2014.XviD.SATRip.fenixclub.avi
Format : AVI
Format/Info : Audio Video Interleave
File size : 895 MiB
Duration : 1h 4mn
Overall bit rate : 1 940 Kbps
Video
ID : 0
Format : MPEG-4 Visual
Format profile : Advanced Simple@L5
Format settings, BVOP : 1
Format settings, QPel : No
Format settings, GMC : No warppoints
Format settings, Matrix : Default (MPEG)
Codec ID : XVID
Codec ID/Hint : XviD
Duration : 1h 4mn
Bit rate : 1 802 Kbps
Width : 704 pixels
Height : 400 pixels
Display aspect ratio : 16:9
Frame rate : 25.000 fps
Color space : YUV
Chroma subsampling : 4:2:0
Bit depth : 8 bits
Scan type : Progressive
Compression mode : Lossy
Bits/(Pixel*Frame) : 0.256
Stream size : 831 MiB (93%)
Writing library : XviD 64
Audio
ID : 1
Format : MPEG Audio
Format version : Version 1
Format profile : Layer 3
Mode : Joint stereo
Mode extension : MS Stereo
Codec ID : 55
Codec ID/Hint : MP3
Duration : 1h 4mn
Bit rate mode : Constant
Bit rate : 128 Kbps
Channel(s) : 2 channels
Sampling rate : 48.0 KHz
Compression mode : Lossy
Stream size : 59.1 MiB (7%)
Alignment : Split accross interleaves
Interleave, duration : 40 ms (1.00 video frame)
Interleave, preload duratio : 500 ms.

Скриншот c названием постановки

Скриншоты


Альтернативный хост





Показать сообщения:    

Текущее время: 08-Дек 07:05

Часовой пояс: UTC + 3


Вы не можете начинать темы
Вы не можете отвечать на сообщения
Вы не можете редактировать свои сообщения
Вы не можете удалять свои сообщения
Вы не можете голосовать в опросах
Вы не можете прикреплять файлы к сообщениям
Вы не можете скачивать файлы