Ромео и Джульетта (Михаил Салес) [2013 г., трагедия, WEB-DLRip] Калининградский областной драматический театр


 

[Цитировать]

Ромео и Джульетта Название театра: Калининградский областной драматический театр.
Год выпуска: 2013.
Жанр: трагедия.
Продолжительность: 02:20:47.
Режиссер-постановщик: народный артист России Михаил Салес.
Действующие лица и исполнители:
Эскал, князь веронский - заслуженный артист республики Марий Эл Александр Егоров,
Меркуцио, родственник князя, друг Ромео - Алексей Грызунов,
Граф Парис, молодой человек, родственник князя - Сергей Борисов,
Паж Париса - Антон Захаров,
Монтекки, глава дома - заслуженный артист России Василий Швечков (ст.),
Леди Монтекки - Татьяна Рогачева,
Ромео, сын Монтекки - Павел Сибиряков,
Бенволио, племянник Монтекки, друг Ромео - Василий Швечков (мл.),
Балтазар, слуга Ромео - Геннадий Филиппович,
Абрахам, слуга Монтекки - Артем Лернер,
Капулетти, глава дома - Олег Яковенко,
Леди Капулетти - Наталья Салес,
Джульетта, дочь Капулетти - Мария Авраменко,
Тибальт, племянник леди Капулетти - Максим Махинов,
Кормилица Джульетты - заслуженная артистка России Наталья Высоцкая,
Петр, слуга Капулетти - Максим Пацерин,
Грегорио, слуга Капулетти - Михаил Шевяков,
Брат Лоренцо, францисканский монах - Петр Мутин,
Брат Джованни, францисканский монах - заслуженный артист Таджикистана Юрий Харламбов,
Аптекарша - Людмила Козлова,
Жители Вероны - Любовь Орлова, Юлия Стерлигова, Надежда Шецко, учащиеся театрального класса лицея №49.
О спектакле:
Самая известная пьеса мирового репертуара, первая трагедия, созданная Шекспиром. Имена ее героев знакомы всем. Однако, только Театр дает возможность непосредственно ощутить их эмоции – от безумной влюбленности до отчаянья. Неудержимые чувства молодых людей сталкиваются с жестокостью семейных устоев, с равнодушием и предательством. Спектакль - о непомерно высокой цене, которую пришлось заплатить представителям двух непримиримых кланов за бессмысленную вражду.
Дополнительная информация:
Страна: Россия .
Автор: Иван Вырыпаев.
Художник: Евгений Болдырев.
Художник по костюмам: Татьяна Старикова.
Композитор: Болеслав Равский (Польша).
Хореограф: Марина Хайруллина.
Фехтование: Павел Сибиряков, Линас Зубе (Литва).

О спектакле.
Релиз
Рип sharky.

Качество видео:...WEB-DLRip
Формат:.................AVI
Видео:..704x400 (1.76:1), 25 fps, XviD build 47 ~1338 kbps avg, 0.19 bit/pixel
Аудио:..44.100 kHz, MPEG Layer 3, 2 ch, ~128.00 kbps avg

Отчет MI

Общее
Полное имя : Romeo.i.Dzhul'etta_Kaliningradskij.ODT.2013.XviD.WEB-DLRip.fenixclub.avi
Format : AVI
Format/Info : Audio Video Interleave
File size : 1.45 GiB
Duration : 2h 20mn
Overall bit rate : 1 477 Kbps
Writing application : VirtualDubMod 1.5.10.2 (build 2540/release)
Writing library : VirtualDubMod build 2540/release
Video
ID : 0
Format : MPEG-4 Visual
Format profile : Advanced Simple@L5
Format settings, BVOP : 1
Format settings, QPel : No
Format settings, GMC : No warppoints
Format settings, Matrix : Default (H.263)
Codec ID : XVID
Codec ID/Hint : XviD
Duration : 2h 20mn
Bit rate : 1 339 Kbps
Width : 704 pixels
Height : 400 pixels
Display aspect ratio : 16:9
Frame rate : 25.000 fps
Color space : YUV
Chroma subsampling : 4:2:0
Bit depth : 8 bits
Scan type : Progressive
Compression mode : Lossy
Bits/(Pixel*Frame) : 0.190
Stream size : 1.32 GiB (91%)
Writing library : XviD 1.2.0.dev47 (UTC 2006-11-01)
Audio
ID : 1
Format : MPEG Audio
Format version : Version 1
Format profile : Layer 3
Codec ID : 55
Codec ID/Hint : MP3
Duration : 2h 20mn
Bit rate mode : Constant
Bit rate : 128 Kbps
Channel(s) : 2 channels
Sampling rate : 44.1 KHz
Compression mode : Lossy
Stream size : 129 MiB (9%)
Alignment : Split accross interleaves
Interleave, duration : 40 ms (1.00 video frame)
Interleave, preload duratio : 500 ms
Writing library : LAME3.97
Encoding settings : -m s -V 4 -q 2 -lowpass 17 -b 128

Скриншоты


Альтернативный хост





Показать сообщения:    

Текущее время: 06-Дек 13:16

Часовой пояс: UTC + 3


Вы не можете начинать темы
Вы не можете отвечать на сообщения
Вы не можете редактировать свои сообщения
Вы не можете удалять свои сообщения
Вы не можете голосовать в опросах
Вы не можете прикреплять файлы к сообщениям
Вы не можете скачивать файлы