Валентинов день (Вячеслав Виттих) [2014 г., трагикомедия, WEB-DLRip] Калининградский областной драматический театр


 

[Цитировать]

Валентинов день Название театра: Калининградский областной драматический театр.
Год выпуска: 2014.
Жанр: трагикомедия.
Продолжительность: 02:15:40.
Режиссер-постановщик: Вячеслав Виттих.
Действующие лица и исполнители:
Валентина - Надежда Ильина,
Валентин, 20 лет - Антон Захаров,
Валентин, 40 лет - Алексей Грызунов,
Катя - Галина Лукина,
Катя, 20 лет - Мария Авраменко,
Катя, 40 лет - Лариса Егорова,
Пластическая группа - Алексей Переберин, Анастасия Башкина, Юлия Стерлигова, Ольга Назарова, Елена Носырева, Сергей Борисов, Андрей Вареницын, Максим Пацерин, Павел Сибиряков.
О спектакле:
Часто задаются вопросы: какую публику звать на спектакль по Вырыпаеву? Я говорю: «Зовите всех, а там разберемся». Мне кажется, что пьеса «Валентинов день» может понравиться и 15-летнему тинейджеру и 85-летней бабушке, и не важно бухгалтеру или трактористу, а может им всем и не понравиться. Очень сложно угадать этих людей. Эта пьеса в первую очередь должна затронуть человека. У каждого есть свой опыт. И если стиль спектакля будет понятен человеку, то хорошо. Но я уверен, что будут люди, которые эту форму не воспримут.
(Вячеслав Виттих, из интервью сайту "Руград")

Дополнительная информация:
Страна: Россия .
Автор: Иван Вырыпаев.
Режиссер-постановщик и музыкальное оформление: Вячеслав Виттих.
Сценография: Юлдаш Нурматов.
Художник по костюмам: Зухра Мукамбетова.
Пластическое решение: Артём Мальков.
Хореограф: Евгений Прокопенко.
Художник по свету: Людмила Воронина.
В спектакле звучат музыкальные композиции группы "TigerLillies".

О спектакле.
Релиз
Рип sharky.

Качество видео:...WEB-DLRip
Формат:.................AVI
Видео:..704x400 (1.76:1), 25 fps, XviD build 47 ~1394 kbps avg, 0.20 bit/pixel
Аудио:..44.100 kHz, MPEG Layer 3, 2 ch, ~128.00 kbps avg

Отчет MI

Общее
Полное имя : Valentinov.den'_Kaliningradskij.ODT.2014.XviD.WEB-DLRip.fenixclub.avi
Format : AVI
Format/Info : Audio Video Interleave
File size : 1.45 GiB
Duration : 2h 15mn
Overall bit rate : 1 533 Kbps
Writing application : VirtualDubMod 1.5.10.2 (build 2540/release)
Writing library : VirtualDubMod build 2540/release
Video
ID : 0
Format : MPEG-4 Visual
Format profile : Advanced Simple@L5
Format settings, BVOP : 1
Format settings, QPel : No
Format settings, GMC : No warppoints
Format settings, Matrix : Default (H.263)
Codec ID : XVID
Codec ID/Hint : XviD
Duration : 2h 15mn
Bit rate : 1 395 Kbps
Width : 704 pixels
Height : 400 pixels
Display aspect ratio : 16:9
Frame rate : 25.000 fps
Color space : YUV
Chroma subsampling : 4:2:0
Bit depth : 8 bits
Scan type : Progressive
Compression mode : Lossy
Bits/(Pixel*Frame) : 0.198
Stream size : 1.32 GiB (91%)
Writing library : XviD 1.2.0.dev47 (UTC 2006-11-01)
Audio
ID : 1
Format : MPEG Audio
Format version : Version 1
Format profile : Layer 3
Codec ID : 55
Codec ID/Hint : MP3
Duration : 2h 15mn
Bit rate mode : Constant
Bit rate : 128 Kbps
Channel(s) : 2 channels
Sampling rate : 44.1 KHz
Compression mode : Lossy
Stream size : 124 MiB (8%)
Alignment : Split accross interleaves
Interleave, duration : 40 ms (1.00 video frame)
Interleave, preload duratio : 500 ms
Writing library : LAME3.97
Encoding settings : -m s -V 4 -q 2 -lowpass 17 -b 128

Скриншоты


Альтернативный хост





Показать сообщения:    

Текущее время: 04-Дек 21:26

Часовой пояс: UTC + 3


Вы не можете начинать темы
Вы не можете отвечать на сообщения
Вы не можете редактировать свои сообщения
Вы не можете удалять свои сообщения
Вы не можете голосовать в опросах
Вы не можете прикреплять файлы к сообщениям
Вы не можете скачивать файлы