На бойком месте (Григорий Дитятковский) [2014 г., Комедия, WEB-DLRip] Калининградский областной драматический театр


 

[Цитировать]

На бойком месте Название театра: Калининградский областной драматический театр.
Год выпуска: 2014.
Жанр: Комедия в 2-х действиях.
Продолжительность: 02:01:57.
Режиссер-постановщик: Григорий Дитятковский (г. Санкт-Петербург).
Действующие лица и исполнители:
Павлин Ипполитович Миловидов, помещик, из отставных кавалеристов - Максим Пацерин,
Вукол Ермолаевич Бессудный, содержатель постоялого двора - Петр Мутин,
Евгения Мироновна, его жена - Любовь Орлова,
Аннушка, его сестра - Мария Савельева,
Пыжиков, из мелкопоместных - Михаил Шевяков,
Непутёвый Пётр Мартыныч, купеческий сын - Павел Сибиряков,
Сеня, его приказчик - Сергей Борисов,
Жук, работник Бессудного - Василий Швечков (мл.),
Разорённый, ямщик - Алексей Вареницын.
О спектакле:
Пьеса короткая – и этим сложна, потому что непонятно, водевиль – не водевиль? Вроде бы комедия, но вдруг выясняется, что в этой комедии есть такие простые и прозрачные вещи, как честь, достоинство, обман, любовь, страсть, воровство. В общем, все про нашу жизнь. Как было, так и остается: все соединимо – и паскудство стоит рядом с достоинством, но надо как-то продолжать жить…
(Из интервью Григория Дитятковского журналисту Евгении Романовой)

Дополнительная информация:
Страна: Россия .
Автор: Александр Николаевич Островский.
Художник: Владимир Филер.
Музыкальное оформление: Аркадий Фельдман.
Художник по свету: Людмила Воронина.

О спектакле.
Релиз
Рип sharky.

Качество видео:...WEB-DLRip
Формат:.................AVI
Видео:..704x400 (1.76:1), 25 fps, XviD build 47 ~1564 kbps avg, 0.22 bit/pixel
Аудио:..44.100 kHz, MPEG Layer 3, 2 ch, ~128.00 kbps avg

Отчет MI

Общее
Полное имя : Na.bojkom.meste_Kaliningradskij.ODT.2014.XviD.WEB-DLRip.fenixclub.avi
Format : AVI
Format/Info : Audio Video Interleave
File size : 1.45 GiB
Duration : 2h 1mn
Overall bit rate : 1 703 Kbps
Writing application : VirtualDubMod 1.5.10.2 (build 2540/release)
Writing library : VirtualDubMod build 2540/release
Video
ID : 0
Format : MPEG-4 Visual
Format profile : Advanced Simple@L5
Format settings, BVOP : 1
Format settings, QPel : No
Format settings, GMC : No warppoints
Format settings, Matrix : Default (H.263)
Codec ID : XVID
Codec ID/Hint : XviD
Duration : 2h 1mn
Bit rate : 1 565 Kbps
Width : 704 pixels
Height : 400 pixels
Display aspect ratio : 16:9
Frame rate : 25.000 fps
Color space : YUV
Chroma subsampling : 4:2:0
Bit depth : 8 bits
Scan type : Progressive
Compression mode : Lossy
Bits/(Pixel*Frame) : 0.222
Stream size : 1.33 GiB (92%)
Writing library : XviD 1.2.0.dev47 (UTC 2006-11-01)
Audio
ID : 1
Format : MPEG Audio
Format version : Version 1
Format profile : Layer 3
Codec ID : 55
Codec ID/Hint : MP3
Duration : 2h 1mn
Bit rate mode : Constant
Bit rate : 128 Kbps
Channel(s) : 2 channels
Sampling rate : 44.1 KHz
Compression mode : Lossy
Stream size : 112 MiB (8%)
Alignment : Split accross interleaves
Interleave, duration : 40 ms (1.00 video frame)
Interleave, preload duratio : 500 ms
Writing library : LAME3.97
Encoding settings : -m s -V 4 -q 2 -lowpass 17 -b 128

Скриншоты


Альтернативный хост





Показать сообщения:    

Текущее время: 08-Дек 19:10

Часовой пояс: UTC + 3


Вы не можете начинать темы
Вы не можете отвечать на сообщения
Вы не можете редактировать свои сообщения
Вы не можете удалять свои сообщения
Вы не можете голосовать в опросах
Вы не можете прикреплять файлы к сообщениям
Вы не можете скачивать файлы