Тайна отеля "Регал" (Анатолий Морозов) [2014 г., иронический триллер, WEB-DLRip] Калининградский областной драматический театр


 

[Цитировать]

Тайна отеля "Регал" Название театра: Калининградский областной драматический театр.
Год выпуска: 2014.
Жанр: иронический триллер.
Продолжительность: 02:29:38.
Режиссер-постановщик: Анатолий Морозов (г. Санкт-Петербург).
Действующие лица и исполнители:
Рис - заслуженный артист России Анатолий Лукин,
Джессика - Анастасия Башкина,
Руэлла - Надежда Ильина,
Джулиан - Геннадий Филиппович,
Феба (Пупэй) - Юлия Стерлигова,
Гарольд - Алексей Грызунов.
О спектакле:
По пьесе Алана Эйкбурна "Дверь в смежную комнату".
Спектакль надо обязательно посмотреть хотя бы потому, что в его основе отлично написанная, первоклассная современная пьеса.
Алана Эйкбурна знают и ценят во всем театральном мире, переводят на все языки, ставят в лучших профессиональных театрах Европы, Америки, Японии, а теперь и России. Он написал 72 пьесы и получил кучу престижных литературных и театральных премий.
Иронический и едкий, изобретательный и парадоксальный, насквозь видящий современных людей как высшего, так и низшего света, драматург умело пользуется современными приемами увлекательности сюжета, сочетая фантастику и триллер, детектив и комедию, эротику и психологическую драму.
Один из известных и тонких российских режиссеров, Анатолий Морозов никогда бы не взялся ставить пьесу, если бы не видел в ней искренних человеческих эмоций, интересных, живых характеров и щемящей романтической темы стремления к счастью, несмотря ни на что...
История неожиданного возвращения героев в свое прошлое, дающего возможность не совершать роковых поступков, помешать совершиться преступлению, удержать руку убийцы, перехитрить и изменить судьбу - это очень сильная пружина, разгоняющая действие пьесы.
Острая психологическая борьба, крутые повороты событий, погони, ловушки, неожиданные решения, рискованные ситуации, чередование страшного и смешного - все это должно захватить внимание зрителя.
Девушка по вызову попадает в загадочную комнату лондонского отеля, через которую можно попасть в прошлое и в будущее:
Эти перемещения очень опасны, потому что где-то рядом скрывается убийца. Кроме того, дверь в любой момент может закрыться, и тогда:
Кто здесь союзник, а кто враг, кому можно верить, и кто же раскроет ужасную тайну?
За перипетиями сюжета скрывается простая и трогательная человеческая история, реакция зала предполагает и смех, и слезы.

Дополнительная информация:
Страна: Россия .
Автор: Алан Эйкбурн.
Художник: Николай Шаронов.
Художник по костюмам: Виктория Хархалуп.
Балетмейстер: Марина Хайруллина.

О спектакле.
Релиз
Рип sharky.

Качество видео:...WEB-DLRip
Формат:.................AVI
Видео:..704x400 (1.76:1), 25 fps, XviD build 47 ~1252 kbps avg, 0.18 bit/pixel
Аудио:..44.100 kHz, MPEG Layer 3, 2 ch, ~128.00 kbps avg

Отчет MI

Общее
Полное имя : Tajna.otelya.Regal_Kaliningradskij.ODT.2014.XviD.WEB-DLRip.fenixclub.avi
Format : AVI
Format/Info : Audio Video Interleave
File size : 1.45 GiB
Duration : 2h 29mn
Overall bit rate : 1 391 Kbps
Writing application : VirtualDubMod 1.5.10.2 (build 2540/release)
Writing library : VirtualDubMod build 2540/release
Video
ID : 0
Format : MPEG-4 Visual
Format profile : Advanced Simple@L5
Format settings, BVOP : 1
Format settings, QPel : No
Format settings, GMC : No warppoints
Format settings, Matrix : Default (H.263)
Codec ID : XVID
Codec ID/Hint : XviD
Duration : 2h 29mn
Bit rate : 1 253 Kbps
Width : 704 pixels
Height : 400 pixels
Display aspect ratio : 16:9
Frame rate : 25.000 fps
Color space : YUV
Chroma subsampling : 4:2:0
Bit depth : 8 bits
Scan type : Progressive
Compression mode : Lossy
Bits/(Pixel*Frame) : 0.178
Stream size : 1.31 GiB (90%)
Writing library : XviD 1.2.0.dev47 (UTC 2006-11-01)
Audio
ID : 1
Format : MPEG Audio
Format version : Version 1
Format profile : Layer 3
Codec ID : 55
Codec ID/Hint : MP3
Duration : 2h 29mn
Bit rate mode : Constant
Bit rate : 128 Kbps
Channel(s) : 2 channels
Sampling rate : 44.1 KHz
Compression mode : Lossy
Stream size : 137 MiB (9%)
Alignment : Split accross interleaves
Interleave, duration : 40 ms (1.00 video frame)
Interleave, preload duratio : 500 ms
Writing library : LAME3.97
Encoding settings : -m s -V 4 -q 2 -lowpass 17 -b 128

Скриншоты


Альтернативный хост





Показать сообщения:    

Текущее время: 04-Дек 19:18

Часовой пояс: UTC + 3


Вы не можете начинать темы
Вы не можете отвечать на сообщения
Вы не можете редактировать свои сообщения
Вы не можете удалять свои сообщения
Вы не можете голосовать в опросах
Вы не можете прикреплять файлы к сообщениям
Вы не можете скачивать файлы