Возвращение со звезд (Владимир Латышев, О. Ларионов) [1989, фантастика, телеспектакль, WEB-DLRip]


 

[Цитировать]

Возвращение со звезд (6 серий) Год выпуска: 1989.
Жанр: фантастика, телеспектакль.
Продолжительность: 00:29:22 + 00:26:49 + 00:37:39 + 00:36:14 + 00:33:45 + 00:44:34.
Режиссер: Владимир Латышев, О. Ларионов.
В ролях:
С. Власов, А. Олейников, О. Онищенко, М. Солопченко, С. Сланкснене, Ю. Агейкин, М. Михайлова, Е. Сергеева, А. Малныкин, А. Власова, В. Кузин и другие артисты Ленинградских театров.
О спектакле:
Роман "Возвращение со звёзд" ("Powrót z gwiazd"), впервые опубликован на польском в 1961 году, первое полное русское издание вышло в 1965 году. Создавался одновременно с другим, более известным сегодня благодаря фильму Тарковского, романом - "Солярис".
После десятилетнего межзвездного полета астронавты вернулись домой. На Земле за это время прошло 127 лет, и всё так изменилось, что они чувствуют себя ненужными и опасными дикарями. В результате процедуры бетризации, "выключающей" естественную природную агрессивность, Земля полностью победила войны, а значительные достижения науки позволили избавиться от большей части опасностей, грозящей отдельному человеку. Общество стало стабильным, а мир - стерильным и комфортным. Однако вместе с агрессивностью человечество утратило и нечто большее. В новом мире уже не нужны глубокие эмоции, сильный характер, умение побороть себя и умение прикладывать нечеловеческие усилия. Все это - рудименты, от которых человечество успешно избавилось всего за два поколения. Перед главным героем и стоит выбор: принять ценности нового общества, или же стать изгоем. А может быть, снова улететь в космос, как планируют остальные вернувшиеся астронавты?

Дополнительная информация:
Страна: СССР .
Выпущено: Ленинградское телевидение.
По мотивам одноименного романа Станислава Лема.
Художник-постановщик: Александр Евграфов, Татьяна Венецианова.
Композитор: Константин Дюбенко.
Операторы: Вячеслав Булаенков, Сергей Мищук, А. Карпов.
Релиз
Рип lesik689.

Качество видео:...WEB-DLRip
Формат:.................AVI
Видео:..640x480 (1.33:1), 25 fps, XviD build 64 ~1696-1699 kbps avg, 0.22 bit/pixel
Аудио:..44.100 kHz, MPEG Layer 3, 2 ch, ~128.00 kbps avg

Отчет Media Info

1-я серия
General
Complete name : Vozvrashchenie.so.zvezd.(6.serij.iz.6).1989.XviD.WEB-DLRip.fenixclub\Vozvrashchenie.so.zvezd.1989.Seria_1.avi
Format : AVI
Format/Info : Audio Video Interleave
File size : 386 MiB
Duration : 29mn 22s
Overall bit rate : 1 837 Kbps
Video
ID : 0
Format : MPEG-4 Visual
Format profile : Advanced Simple@L5
Format settings, BVOP : 1
Format settings, QPel : No
Format settings, GMC : No warppoints
Format settings, Matrix : Default (MPEG)
Codec ID : XVID
Codec ID/Hint : XviD
Duration : 29mn 22s
Bit rate : 1 699 Kbps
Width : 640 pixels
Height : 480 pixels
Display aspect ratio : 4:3
Frame rate : 25.000 fps
Color space : YUV
Chroma subsampling : 4:2:0
Bit depth : 8 bits
Scan type : Progressive
Compression mode : Lossy
Bits/(Pixel*Frame) : 0.221
Stream size : 357 MiB (93%)
Writing library : XviD 64
Audio
ID : 1
Format : MPEG Audio
Format version : Version 1
Format profile : Layer 3
Mode : Joint stereo
Mode extension : MS Stereo
Codec ID : 55
Codec ID/Hint : MP3
Duration : 29mn 22s
Bit rate mode : Constant
Bit rate : 128 Kbps
Channel(s) : 2 channels
Sampling rate : 44.1 KHz
Compression mode : Lossy
Stream size : 26.8 MiB (7%)
Alignment : Split accross interleaves
Interleave, duration : 40 ms (1.00 video frame)
Interleave, preload duratio : 501 ms
2-я серия
General
Complete name : Vozvrashchenie.so.zvezd.(6.serij.iz.6).1989.XviD.WEB-DLRip.fenixclub\Vozvrashchenie.so.zvezd.1989.Seria_2.avi
Format : AVI
Format/Info : Audio Video Interleave
File size : 352 MiB
Duration : 26mn 48s
Overall bit rate : 1 835 Kbps
Video
ID : 0
Format : MPEG-4 Visual
Format profile : Advanced Simple@L5
Format settings, BVOP : 1
Format settings, QPel : No
Format settings, GMC : No warppoints
Format settings, Matrix : Default (MPEG)
Codec ID : XVID
Codec ID/Hint : XviD
Duration : 26mn 48s
Bit rate : 1 697 Kbps
Width : 640 pixels
Height : 480 pixels
Display aspect ratio : 4:3
Frame rate : 25.000 fps
Color space : YUV
Chroma subsampling : 4:2:0
Bit depth : 8 bits
Scan type : Progressive
Compression mode : Lossy
Bits/(Pixel*Frame) : 0.221
Stream size : 326 MiB (93%)
Writing library : XviD 64
Audio
ID : 1
Format : MPEG Audio
Format version : Version 1
Format profile : Layer 3
Mode : Joint stereo
Mode extension : MS Stereo
Codec ID : 55
Codec ID/Hint : MP3
Duration : 26mn 48s
Bit rate mode : Constant
Bit rate : 128 Kbps
Channel(s) : 2 channels
Sampling rate : 44.1 KHz
Compression mode : Lossy
Stream size : 24.5 MiB (7%)
Alignment : Split accross interleaves
Interleave, duration : 40 ms (0.99 video frame)
Interleave, preload duratio : 501 ms
3-я серия
General
Complete name : Vozvrashchenie.so.zvezd.(6.serij.iz.6).1989.XviD.WEB-DLRip.fenixclub\Vozvrashchenie.so.zvezd.1989.Seria_3.avi
Format : AVI
Format/Info : Audio Video Interleave
File size : 494 MiB
Duration : 37mn 38s
Overall bit rate : 1 836 Kbps
Video
ID : 0
Format : MPEG-4 Visual
Format profile : Advanced Simple@L5
Format settings, BVOP : 1
Format settings, QPel : No
Format settings, GMC : No warppoints
Format settings, Matrix : Default (MPEG)
Codec ID : XVID
Codec ID/Hint : XviD
Duration : 37mn 38s
Bit rate : 1 699 Kbps
Width : 640 pixels
Height : 480 pixels
Display aspect ratio : 4:3
Frame rate : 25.000 fps
Color space : YUV
Chroma subsampling : 4:2:0
Bit depth : 8 bits
Scan type : Progressive
Compression mode : Lossy
Bits/(Pixel*Frame) : 0.221
Stream size : 457 MiB (93%)
Writing library : XviD 64
Audio
ID : 1
Format : MPEG Audio
Format version : Version 1
Format profile : Layer 3
Mode : Joint stereo
Mode extension : MS Stereo
Codec ID : 55
Codec ID/Hint : MP3
Duration : 37mn 38s
Bit rate mode : Constant
Bit rate : 128 Kbps
Channel(s) : 2 channels
Sampling rate : 44.1 KHz
Compression mode : Lossy
Stream size : 34.4 MiB (7%)
Alignment : Split accross interleaves
Interleave, duration : 40 ms (1.00 video frame)
Interleave, preload duratio : 501 ms
4-я серия
General
Complete name : Vozvrashchenie.so.zvezd.(6.serij.iz.6).1989.XviD.WEB-DLRip.fenixclub\Vozvrashchenie.so.zvezd.1989.Seria_4.avi
Format : AVI
Format/Info : Audio Video Interleave
File size : 476 MiB
Duration : 36mn 13s
Overall bit rate : 1 836 Kbps
Video
ID : 0
Format : MPEG-4 Visual
Format profile : Advanced Simple@L5
Format settings, BVOP : 1
Format settings, QPel : No
Format settings, GMC : No warppoints
Format settings, Matrix : Default (MPEG)
Codec ID : XVID
Codec ID/Hint : XviD
Duration : 36mn 13s
Bit rate : 1 699 Kbps
Width : 640 pixels
Height : 480 pixels
Display aspect ratio : 4:3
Frame rate : 25.000 fps
Color space : YUV
Chroma subsampling : 4:2:0
Bit depth : 8 bits
Scan type : Progressive
Compression mode : Lossy
Bits/(Pixel*Frame) : 0.221
Stream size : 440 MiB (93%)
Writing library : XviD 64
Audio
ID : 1
Format : MPEG Audio
Format version : Version 1
Format profile : Layer 3
Mode : Joint stereo
Mode extension : MS Stereo
Codec ID : 55
Codec ID/Hint : MP3
Duration : 36mn 13s
Bit rate mode : Constant
Bit rate : 128 Kbps
Channel(s) : 2 channels
Sampling rate : 44.1 KHz
Compression mode : Lossy
Stream size : 33.1 MiB (7%)
Alignment : Split accross interleaves
Interleave, duration : 40 ms (1.00 video frame)
Interleave, preload duratio : 501 ms
5-я серия
General
Complete name : Vozvrashchenie.so.zvezd.(6.serij.iz.6).1989.XviD.WEB-DLRip.fenixclub\Vozvrashchenie.so.zvezd.1989.Seria_5.avi
Format : AVI
Format/Info : Audio Video Interleave
File size : 443 MiB
Duration : 33mn 44s
Overall bit rate : 1 837 Kbps
Video
ID : 0
Format : MPEG-4 Visual
Format profile : Advanced Simple@L5
Format settings, BVOP : 1
Format settings, QPel : No
Format settings, GMC : No warppoints
Format settings, Matrix : Default (MPEG)
Codec ID : XVID
Codec ID/Hint : XviD
Duration : 33mn 44s
Bit rate : 1 699 Kbps
Width : 640 pixels
Height : 480 pixels
Display aspect ratio : 4:3
Frame rate : 25.000 fps
Color space : YUV
Chroma subsampling : 4:2:0
Bit depth : 8 bits
Scan type : Progressive
Compression mode : Lossy
Bits/(Pixel*Frame) : 0.221
Stream size : 410 MiB (93%)
Writing library : XviD 64
Audio
ID : 1
Format : MPEG Audio
Format version : Version 1
Format profile : Layer 3
Mode : Joint stereo
Mode extension : MS Stereo
Codec ID : 55
Codec ID/Hint : MP3
Duration : 33mn 44s
Bit rate mode : Constant
Bit rate : 128 Kbps
Channel(s) : 2 channels
Sampling rate : 44.1 KHz
Compression mode : Lossy
Stream size : 30.8 MiB (7%)
Alignment : Split accross interleaves
Interleave, duration : 40 ms (1.00 video frame)
Interleave, preload duratio : 501 ms
6-я серия
General
Complete name : Vozvrashchenie.so.zvezd.(6.serij.iz.6).1989.XviD.WEB-DLRip.fenixclub\Vozvrashchenie.so.zvezd.1989.Seria_6.avi
Format : AVI
Format/Info : Audio Video Interleave
File size : 585 MiB
Duration : 44mn 34s
Overall bit rate : 1 834 Kbps
Video
ID : 0
Format : MPEG-4 Visual
Format profile : Advanced Simple@L5
Format settings, BVOP : 1
Format settings, QPel : No
Format settings, GMC : No warppoints
Format settings, Matrix : Default (MPEG)
Codec ID : XVID
Codec ID/Hint : XviD
Duration : 44mn 34s
Bit rate : 1 696 Kbps
Width : 640 pixels
Height : 480 pixels
Display aspect ratio : 4:3
Frame rate : 25.000 fps
Color space : YUV
Chroma subsampling : 4:2:0
Bit depth : 8 bits
Scan type : Progressive
Compression mode : Lossy
Bits/(Pixel*Frame) : 0.221
Stream size : 541 MiB (93%)
Writing library : XviD 64
Audio
ID : 1
Format : MPEG Audio
Format version : Version 1
Format profile : Layer 3
Mode : Joint stereo
Mode extension : MS Stereo
Codec ID : 55
Codec ID/Hint : MP3
Duration : 44mn 34s
Bit rate mode : Constant
Bit rate : 128 Kbps
Channel(s) : 2 channels
Sampling rate : 44.1 KHz
Compression mode : Lossy
Stream size : 40.7 MiB (7%)
Alignment : Split accross interleaves
Interleave, duration : 40 ms (1.00 video frame)
Interleave, preload duratio : 501 ms

Скриншоты


Альтернативный хост





Показать сообщения:    

Текущее время: 06-Дек 17:05

Часовой пояс: UTC + 3


Вы не можете начинать темы
Вы не можете отвечать на сообщения
Вы не можете редактировать свои сообщения
Вы не можете удалять свои сообщения
Вы не можете голосовать в опросах
Вы не можете прикреплять файлы к сообщениям
Вы не можете скачивать файлы