Ведунья (Елена Волик) [2014 г., Норвегия, драматичная комедия, WEB-DLRip] Русское театральное общество в Осло. Театр "Исканверта"


 

[Цитировать]

Ведунья (2 действия) Наименование театра: Русское театральное общество в Осло. Театр "Исканверта".
Год выпуска: 2014.
Жанр: драматичная комедия.
Продолжительность: 01:07:42 + 00:57:23.
Язык: Русский.
Режиссер: Елена Волик.
Действующие лица и исполнители:
Ведунья Добромира - Ольга Виле,
Вероника - Виктория Красковская,
Лена, дочь Добромиры - Варвара Бибикова,
Лиза - Наталья Паскалова,
Инна - Марина Скрыпник,
Инесса - Елена Оливер,
Алена - Алена Петрова,
Лев - Максим Миронов,
Антон - Игорь Лищенко.
О спектакле:
По пьесе Галины Лавриненко.
Ведунья Добромира приезжает в небольшой городок и открывает в нем магический салон, долгое время в её услугах никто не нуждается, но наконец появляются клиентки, каждая из которых находится в жизненном тупике. Две молодые женщины долгое время "делят" одного мужчину пытаясь смириться с его двоеженством и только узнав о появлении третьей в его жизни приходят за помощью к ведунье где и встречают любовницу мужа...

Дополнительная информация:
Страна: Норвегия .
Выпущено: Русское театральное общество в Осло. Театр "Исканверта".
Драматург: Галина Лавриненко.
Художественный руководитель и режиссер: Елена Волик.
Скрипка - Елена Оливер.

Релиз
Рип sharky.

Качество видео:...WEB-DLRip
Формат:.................AVI
Видео:..720x304 (2.37:1), 23.976 fps, XviD build 47 ~1522 kbps avg, 0.29 bit/pixel
Аудио:..44.100 kHz, MPEG Layer 3, 2 ch, ~128.00 kbps avg

Отчет Media Info

1-е действие
General
Complete name : Vedun'ya_Teatr.Iskanverta.(2.deystviya.iz.2).2014.XviD.WEB-DLRip.fenixclub\Vedun'ya_Teatr.Iskanverta.(1-e.deystvie.iz.2).2014.XviD.WEB-DLRip.fenixclub.avi
Format : AVI
Format/Info : Audio Video Interleave
File size : 804 MiB
Duration : 1h 7mn
Overall bit rate : 1 660 Kbps
Writing application : VirtualDubMod 1.5.10.2 (build 2540/release)
Writing library : VirtualDubMod build 2540/release
Video
ID : 0
Format : MPEG-4 Visual
Format profile : Advanced Simple@L5
Format settings, BVOP : 1
Format settings, QPel : No
Format settings, GMC : No warppoints
Format settings, Matrix : Default (H.263)
Codec ID : XVID
Codec ID/Hint : XviD
Duration : 1h 7mn
Bit rate : 1 523 Kbps
Width : 720 pixels
Height : 304 pixels
Display aspect ratio : 2.35:1
Frame rate : 23.976 fps
Color space : YUV
Chroma subsampling : 4:2:0
Bit depth : 8 bits
Scan type : Progressive
Compression mode : Lossy
Bits/(Pixel*Frame) : 0.290
Stream size : 737 MiB (92%)
Writing library : XviD 1.2.0.dev47 (UTC 2006-11-01)
Audio
ID : 1
Format : MPEG Audio
Format version : Version 1
Format profile : Layer 3
Codec ID : 55
Codec ID/Hint : MP3
Duration : 1h 7mn
Bit rate mode : Constant
Bit rate : 128 Kbps
Channel(s) : 2 channels
Sampling rate : 44.1 KHz
Compression mode : Lossy
Stream size : 62.0 MiB (8%)
Alignment : Split accross interleaves
Interleave, duration : 42 ms (1.00 video frame)
Interleave, preload duratio : 500 ms
Writing library : LAME3.97
Encoding settings : -m s -V 4 -q 2 -lowpass 17 -b 128
2-е действие
General
Complete name : Vedun'ya_Teatr.Iskanverta.(2.deystviya.iz.2).2014.XviD.WEB-DLRip.fenixclub\Vedun'ya_Teatr.Iskanverta.(2-e.deystvie.iz.2).2014.XviD.WEB-DLRip.fenixclub.avi
Format : AVI
Format/Info : Audio Video Interleave
File size : 681 MiB
Duration : 57mn 22s
Overall bit rate : 1 660 Kbps
Writing application : VirtualDubMod 1.5.10.2 (build 2540/release)
Writing library : VirtualDubMod build 2540/release
Video
ID : 0
Format : MPEG-4 Visual
Format profile : Advanced Simple@L5
Format settings, BVOP : 1
Format settings, QPel : No
Format settings, GMC : No warppoints
Format settings, Matrix : Default (H.263)
Codec ID : XVID
Codec ID/Hint : XviD
Duration : 57mn 22s
Bit rate : 1 523 Kbps
Width : 720 pixels
Height : 304 pixels
Display aspect ratio : 2.35:1
Frame rate : 23.976 fps
Color space : YUV
Chroma subsampling : 4:2:0
Bit depth : 8 bits
Scan type : Progressive
Compression mode : Lossy
Bits/(Pixel*Frame) : 0.290
Stream size : 625 MiB (92%)
Writing library : XviD 1.2.0.dev47 (UTC 2006-11-01)
Audio
ID : 1
Format : MPEG Audio
Format version : Version 1
Format profile : Layer 3
Codec ID : 55
Codec ID/Hint : MP3
Duration : 57mn 22s
Bit rate mode : Constant
Bit rate : 128 Kbps
Channel(s) : 2 channels
Sampling rate : 44.1 KHz
Compression mode : Lossy
Stream size : 52.5 MiB (8%)
Alignment : Split accross interleaves
Interleave, duration : 42 ms (1.00 video frame)
Interleave, preload duratio : 500 ms
Writing library : LAME3.97
Encoding settings : -m s -V 4 -q 2 -lowpass 17 -b 128

Скриншоты


Альтернативный хост





Показать сообщения:    

Текущее время: 05-Дек 07:30

Часовой пояс: UTC + 3


Вы не можете начинать темы
Вы не можете отвечать на сообщения
Вы не можете редактировать свои сообщения
Вы не можете удалять свои сообщения
Вы не можете голосовать в опросах
Вы не можете прикреплять файлы к сообщениям
Вы не можете скачивать файлы