Боль в помощь! (Елена Волик) [2015 г., Норвегия, мелодрама, WEB-DLRip] Русское театральное общество в Осло. Театр "Исканверта"


 

[Цитировать]

Боль в помощь! Наименование театра: Русское театральное общество в Осло. Театр "Исканверта".
Год выпуска: 2015.
Жанр: мелодрама.
Продолжительность: 01:33:16.
Язык: Русский.
Режиссер: Елена Волик.
Действующие лица и исполнители:
Варвара - Марина Скрыпник,
Соня - Ксения Новикова,
Гармонист Сергей - Кирилл Котов,
Управдом Шура - Полина Гурвиц,
Милиционер Костя - Артур Мартов,
Женщина - Полина Гурвиц,
Девушка - Наталья Паскалова,
Мужчина - Аааре-Пауль Латтик,
Врач - Алена Петрова,
Нина - Виктория Богоева,
Дочь Машка - Ольга Сербина,
Гомонов - Дмитрий Поляков,
Подруга предатель - Виктория Красковская,
Подруга - Алена Петрова,
Лия - Ольга Виле,
Черные люди - Максим Миронов, Анна Седунова, Александр Смирнов, Надежда Антонова.
О спектакле:
Мелодрама по рассказам Виктории Токаревой.
Дополнительная информация:
Страна: Норвегия .
Выпущено: Русское театральное общество в Осло. Театр "Исканверта".
Автор рассказов: Виктория Токарева.
Драматург: Галина Лавриненко.
Художественный руководитель и режиссер: Елена Волик.
Звук: Елена Волик.
Художник по свету: Мария Васильева.
Постановка танцев: Helge Garke & Ксения Криворучко.
Премьера: 31 мая 2015 года.

Релиз
Рип sharky.

Качество видео:...WEB-DLRip
Формат:.................AVI
Видео:..704x400 (1.76:1), 23.976 fps, DivX Codec 4.x ~1525 kbps avg, 0.23 bit/pixel
Аудио:..44.100 kHz, MPEG Layer 3, 2 ch, ~128.00 kbps avg

Отчет Media Info

General
Complete name : Bol'.v.pomow_Teatr.Iskanverta.2015.DivX.WEB-DLRip.fenixclub.avi
Format : AVI
Format/Info : Audio Video Interleave
File size : 1.08 GiB
Duration : 1h 33mn
Overall bit rate : 1 663 Kbps
Video
ID : 0
Format : MPEG-4 Visual
Format settings, BVOP : 1
Format settings, QPel : No
Format settings, GMC : No warppoints
Format settings, Matrix : Default (H.263)
Codec ID : DX50
Codec ID/Hint : DivX 5
Duration : 1h 33mn
Bit rate : 1 526 Kbps
Width : 704 pixels
Height : 400 pixels
Display aspect ratio : 16:9
Frame rate : 23.976 fps
Color space : YUV
Chroma subsampling : 4:2:0
Bit depth : 8 bits
Scan type : Progressive
Compression mode : Lossy
Bits/(Pixel*Frame) : 0.226
Stream size : 1 018 MiB (92%)
Title : Video
Writing library : DivX 3013
Audio
ID : 1
Format : MPEG Audio
Format version : Version 1
Format profile : Layer 3
Codec ID : 55
Codec ID/Hint : MP3
Duration : 1h 33mn
Bit rate mode : Constant
Bit rate : 128 Kbps
Channel(s) : 2 channels
Sampling rate : 44.1 KHz
Compression mode : Lossy
Stream size : 85.4 MiB (8%)
Alignment : Split accross interleaves
Interleave, duration : 42 ms (1.00 video frame)
Interleave, preload duratio : 500 ms
Title : Audio

Скриншоты


Альтернативный хост





Показать сообщения:    

Текущее время: 09-Дек 22:26

Часовой пояс: UTC + 3


Вы не можете начинать темы
Вы не можете отвечать на сообщения
Вы не можете редактировать свои сообщения
Вы не можете удалять свои сообщения
Вы не можете голосовать в опросах
Вы не можете прикреплять файлы к сообщениям
Вы не можете скачивать файлы