Стакан воды (Александр Усольцев-Гарф) [1957, СССР, Комедия, мелодрама, исторический, DVB] Государственный Академический Малый Театр


 

[Цитировать]

Стакан воды
Название театра: Государственный Академический Малый Театр
Страна: СССР
Жанр: Комедия, мелодрама, исторический
Год выпуска: 1957
Продолжительность: 01:32:45
Режиссёр: Александр Усольцев-Гарф
В ролях:
Елена Николаевна Гоголева, Татьяна Александровна Еремеева, Лилия Витальевна Юдина, Евгений Павлович Велихов, Владимир Федорович Вилль, Олег Федоровский, Николай Леонидович Афанасьев
Описание:Телеспектакль режиссера Александра Усольцев-Гарфа "Стакан воды" - первая отечественная экранизация известной пьесы Эжена Скриба, которая посвящена тайнам английского двора.
В 1714 году, в королевском дворце Сент-Джемс (Лондон), правит балом решительная и смелая герцогиня Мальборо, умело пользующаяся безволием королевы. Против нее выступает опытный политический игрок, лорд Болингброк, который мечтает восстановить свое влияние при дворе. Ради этого бывший министр пускает в ход все доступные ему средства, даже соперничество королевы и герцогини Мальборо, влюбленных в молодого офицера Мешема.
Семпл: https://www.sendspace.com/file/qvsp7z
Качество видео: DVB
Формат видео: MPG
Видео: MPEG2, 720x576 (4:3), 2756 Кбит/сек, 25,000 кадров/сек ,(0.266 bit/pixel)
Аудио: MP2, 192 Кбит/сек, 48,0 КГц, 2 канала

MediaInfo

Полное имя : Стакан воды .mpg
Формат : MPEG-PS
Размер файла : 1,95 Гбайт
Продолжительность : 1 ч. 32 м.
Режим общего битрейта : Переменный
Общий поток : 3008 Кбит/сек
Видео
Идентификатор : 224 (0xE0)
Формат : MPEG Video
Версия формата : Version 2
Профиль формата : Main@Main
Параметр BVOP формата : Да
Параметр матрицы формата : Выборочная
Параметр GOP формата : M=3, N=12
Структура изображения : Frame
Продолжительность : 1 ч. 32 м.
Вид битрейта : Переменный
Битрейт : 2756 Кбит/сек
Максимальный битрейт : 10000 Кбит/сек
Ширина : 720 пикселей
Высота : 576 пикселей
Соотношение сторон : 4:3
Частота кадров : 25,000 кадров/сек
Стандарт вещания : PAL
Цветовое пространство : YUV
Субдискретизация насыщенности : 4:2:0
Битовая глубина : 8 бит
Тип развёртки : Чересстрочная
Порядок развёртки : Верхнее поле первое
Метод сжатия : С потерями
Бит/(Пиксели*Кадры) : 0.266
Временной код первого кадра : 00:00:00:00
Оригинал временного кода : Group of pictures header
GOP, открыто/закрыто : Открыто
GOP, открыто/закрыто на первом кадре : Закрыто
Размер потока : 1,79 Гбайт (92%)
Аудио
Идентификатор : 192 (0xC0)
Формат : MPEG Audio
Версия формата : Version 1
Профиль формата : Layer 2
Продолжительность : 1 ч. 32 м.
Вид битрейта : Постоянный
Битрейт : 192 Кбит/сек
Каналы : 2 канала
Частота : 48,0 КГц
Метод сжатия : С потерями
Задержка видео : 18 мс.
Размер потока : 127 Мбайт (6%)

Скриншот с названием постановки




Показать сообщения:    

Текущее время: 04-Дек 00:54

Часовой пояс: UTC + 3


Вы не можете начинать темы
Вы не можете отвечать на сообщения
Вы не можете редактировать свои сообщения
Вы не можете удалять свои сообщения
Вы не можете голосовать в опросах
Вы не можете прикреплять файлы к сообщениям
Вы не можете скачивать файлы