Гнев отца (Игорь Морозов) [1988, Детский телеспектакль, WEB-DLRip]


 

[Цитировать]

Гнев отца Год выпуска: 1988.
Жанр: Детский телеспектакль.
Продолжительность: 00:30:37.
Режиссер: Игорь Морозов.
Действующие лица и исполнители:
Том - Даня Червоненко,
Корнелия - Ирина Соколова,
Карл - Михаил Данилов,
Гаральд - Виктор Михайлов,
Энн - Кира Крейлис-Петрова,
Билли - Владимир Некрасов,
Кэт - Марина Старых,
Оскар - Валерий Матвеев,
В эпизодах - Екатерина Морозова, Николай Киржун, Зоя Убель.
О спектакле:
Накануне возвращения Беринга из долгого путешествия его сын, маленький Том Беринг, пускал из окна цветные мыльные пузыри, за что получил выговор от тетки Корнелии и ее мужа, дяди Карла. Корнелия долго пророчила Тому страшную судьбу проказников: сделаться преступником или бродягой. И добавила: "Страшись гнева отца! Как только приедет брат, я безжалостно расскажу ему о твоих поступках, и его гнев всей тяжестью обрушится на тебя". А дядя Карл нагнулся, подбоченившись, и прибавил: "Его гнев будет ужасен". Упоминание о "гневе" отца смущало и пугало Тома. Спросить тетку или дядю о том, что такое гнев - значило бы показать, что он струсил. Том не хотел доставить им этого удовольствия...
Дополнительная информация:
Страна: СССР .
Выпущено: Ленинградское телевидение.
По одноименному рассказу Александра Грина.
Автор сценария: Виктория Бугринова.
Художники-постановщики: Инна Виноградова, Наталия Фёдорова.
Ведущий оператор: Анатолий Ильин.
Релиз
Рип lesik689.

Качество видео:...WEB-DLRip
Формат:.................AVI
Видео:..640x480 (1.33:1), 25 fps, XviD build 64 ~1797 kbps avg, 0.23 bit/pixel
Аудио:..44.100 kHz, MPEG Layer 3, 2 ch, ~128.00 kbps avg

Отчет Media Info

General
Complete name : Gnev.otca.1988.XviD.WEB-DLRip.fenixclub.avi
Format : AVI
Format/Info : Audio Video Interleave
File size : 424 MiB
Duration : 30mn 36s
Overall bit rate : 1 935 Kbps
Video
ID : 0
Format : MPEG-4 Visual
Format profile : Advanced Simple@L5
Format settings, BVOP : 1
Format settings, QPel : No
Format settings, GMC : No warppoints
Format settings, Matrix : Default (MPEG)
Codec ID : XVID
Codec ID/Hint : XviD
Duration : 30mn 36s
Bit rate : 1 797 Kbps
Width : 640 pixels
Height : 480 pixels
Display aspect ratio : 4:3
Frame rate : 25.000 fps
Color space : YUV
Chroma subsampling : 4:2:0
Bit depth : 8 bits
Scan type : Progressive
Compression mode : Lossy
Bits/(Pixel*Frame) : 0.234
Stream size : 394 MiB (93%)
Writing library : XviD 64
Audio
ID : 1
Format : MPEG Audio
Format version : Version 1
Format profile : Layer 3
Mode : Joint stereo
Mode extension : MS Stereo
Codec ID : 55
Codec ID/Hint : MP3
Duration : 30mn 36s
Bit rate mode : Constant
Bit rate : 128 Kbps
Channel(s) : 2 channels
Sampling rate : 44.1 KHz
Compression mode : Lossy
Stream size : 28.0 MiB (7%)
Alignment : Split accross interleaves
Interleave, duration : 40 ms (1.00 video frame)
Interleave, preload duratio : 501 ms

Скриншоты


Альтернативный хост





Показать сообщения:    

Текущее время: 08-Дек 09:03

Часовой пояс: UTC + 3


Вы не можете начинать темы
Вы не можете отвечать на сообщения
Вы не можете редактировать свои сообщения
Вы не можете удалять свои сообщения
Вы не можете голосовать в опросах
Вы не можете прикреплять файлы к сообщениям
Вы не можете скачивать файлы