Стулья (Евгений Сидоренко) [2013 г., Украина, трагикомедия, WEB-DLRip] Черниговский областной Молодежный театр


 

[Цитировать]

Стулья Название театра: Черниговский областной Молодежный театр.
Год выпуска: 2013.
Страна: Украина .
Жанр: трагикомедия.
Продолжительность: 01:29:58.
Язык: Русский.
Режиссёры: Евгений Сидоренко.
Действующие лица и исполнители:
Старик - Роман Покровский
Старуха - Юлия Матросова.
О спектакле:
Дипломный режиссерский спектакль актера Евгения Сидоренко. Драматическая история двух никому не нужных стариков, развлекающихся играми, ими же и придуманными. Представляя, что к ним пришли лучшие люди города во главе с императором. Но это абсурд. Они бесконечно одиноки.
Дополнительная информация:
Автор: Эжен Ионеско.
Перевод Марины Кожевниковой.
Постановка и музыкальное решение: Евгений Сидоренко.
Сценография и костюмы:С Татьяна Магура.
Премьера спектакля состоялась 13 апреля 2013 года.

О спектакле.
Релиз
Рип sharky.

Качество видео:...WEB-DLRip
Формат:.................AVI
Видео:..704x400 (1.76:1), 25 fps, XviD build 47 ~1641 kbps avg, 0.23 bit/pixel
Аудио:..44.100 kHz, MPEG Layer 3, 2 ch, ~128.00 kbps avg

Отчет MediaInfo

Общее
Полное имя : Stul'ya_Chernigovskij.OMT.2013.XviD.WEB-DLRip.fenixclub.avi
Формат : AVI
Формат/Информация : Audio Video Interleave
Размер файла : 1,12 Гбайт
Продолжительность : 1 ч. 29 м.
Общий поток : 1779 Кбит/сек
Программа кодирования : VirtualDubMod 1.5.10.2 (build 2540/release)
Библиотека кодирования : VirtualDubMod build 2540/release
Видео
Идентификатор : 0
Формат : MPEG-4 Visual
Профиль формата : Advanced Simple@L5
Параметр BVOP формата : 1
Параметр QPel формата : Нет
Параметр GMC формата : Без точки перехода
Параметр матрицы формата : Default (H.263)
Идентификатор кодека : XVID
Идентификатор кодека/Подсказка : XviD
Продолжительность : 1 ч. 29 м.
Битрейт : 1642 Кбит/сек
Ширина : 704 пикселя
Высота : 400 пикселей
Соотношение сторон : 16:9
Частота кадров : 25,000 кадров/сек
Цветовое пространство : YUV
Субдискретизация насыщенности : 4:2:0
Битовая глубина : 8 бит
Тип развёртки : Прогрессивная
Метод сжатия : С потерями
Бит/(Пиксели*Кадры) : 0.233
Размер потока : 1,03 Гбайт (92%)
Библиотека кодирования : XviD 1.2.0.dev47 (UTC 2006-11-01)
Аудио
Идентификатор : 1
Формат : MPEG Audio
Версия формата : Version 1
Профиль формата : Layer 3
Идентификатор кодека : 55
Идентификатор кодека/Подсказка : MP3
Продолжительность : 1 ч. 29 м.
Вид битрейта : Постоянный
Битрейт : 128 Кбит/сек
Каналы : 2 канала
Частота : 44,1 КГц
Метод сжатия : С потерями
Размер потока : 82,4 Мбайт (7%)
Выравнивание : Разделение по промежуткам
Продолжительность промежутка : 40 мс. (1,00 видеокадр)
Время предзагрузки промежутка : 500 мс.
Библиотека кодирования : LAME3.97
Настройки программы : -m s -V 4 -q 2 -lowpass 17 -b 128

Скриншоты


Альтернативный хост





Показать сообщения:    

Текущее время: 06-Дек 15:13

Часовой пояс: UTC + 3


Вы не можете начинать темы
Вы не можете отвечать на сообщения
Вы не можете редактировать свои сообщения
Вы не можете удалять свои сообщения
Вы не можете голосовать в опросах
Вы не можете прикреплять файлы к сообщениям
Вы не можете скачивать файлы