Ать-два и в дамки (Диана Лукова) [1968, сатира, телеспектакль, TVRip]


 

[Цитировать]

Ать-два и в дамки Год выпуска: 1968.
Жанр: сатира, телеспектакль.
Продолжительность: 01:12:34.
Режиссер: Диана Лукова.
Действующие лица и исполнители:
Лепус Тимидус - Владислав Стржельчик,
Гней Барбатус - Александр Соколов,
Ламелла - Наталья Тенякова,
Энрико Вульвиус - Сергей Боярский,
Бос Таурус - Лев Лемке,
Омар Комикс - Владимир Усков,
Пуль Бомбардус - Павел Панков,
Марк Дубинка - Михаил Девяткин,
Секст Косоглазый - Изиль Заблудовский,
Луций Кастет - Лев Ластовка,
Фабий Скорострел - Борис Лескин,
Эдмон Сакс - Сергей Карнович-Валуа,
Ларус - Юрий Шевчук,
Бертулинус - Алексей Петренко,
Зазывала - Гелий Сысоев.
О спектакле:
Вариация на тему памфлета известного финского писателя Мартти Ларни "Об этом помалкивают".
О буржуазном образе жизни, показывающем бездуховность и нравственную нищету, царящую в обществе "всеобщего благоденствия", где все продается: ум, совесть, честь, достоинство человека.

Дополнительная информация:
Страна: СССР .
Выпущено: Ленинградское телевидение.
Автор: Мартти Ларни.
Художник-постановщик: Александр Евграфов.
Композитор: Вадим Кузнецов.
Ведущий оператор: М. Невский.
Релиз

Качество видео:...TVRip
Формат:.................AVI
Видео:..640x480 (1.33:1), 25 fps, XviD build 73 ~1207 kbps avg, 0.16 bit/pixel
Аудио:..44.100 kHz, MPEG Layer 3, 2 ch, ~128.00 kbps avg

Отчет Media Info

General
Complete name : At'.dva.i.v.damki.1968.XviD.TVRip.fenixclub.avi
Format : AVI
Format/Info : Audio Video Interleave
File size : 698 MiB
Duration : 1h 12mn
Overall bit rate : 1 345 Kbps
Video
ID : 0
Format : MPEG-4 Visual
Format profile : Advanced Simple@L5
Format settings, BVOP : 2
Format settings, QPel : No
Format settings, GMC : No warppoints
Format settings, Matrix : Default (H.263)
Codec ID : XVID
Codec ID/Hint : XviD
Duration : 1h 12mn
Bit rate : 1 208 Kbps
Width : 640 pixels
Height : 480 pixels
Display aspect ratio : 4:3
Frame rate : 25.000 fps
Color space : YUV
Chroma subsampling : 4:2:0
Bit depth : 8 bits
Scan type : Progressive
Compression mode : Lossy
Bits/(Pixel*Frame) : 0.157
Stream size : 627 MiB (90%)
Writing library : XviD 73
Audio
ID : 1
Format : MPEG Audio
Format version : Version 1
Format profile : Layer 3
Mode : Joint stereo
Mode extension : MS Stereo
Codec ID : 55
Codec ID/Hint : MP3
Duration : 1h 12mn
Bit rate mode : Constant
Bit rate : 128 Kbps
Channel(s) : 2 channels
Sampling rate : 44.1 KHz
Compression mode : Lossy
Stream size : 66.4 MiB (10%)
Alignment : Split accross interleaves
Interleave, duration : 40 ms (1.00 video frame)
Interleave, preload duratio : 500 ms
Writing library : LAME3.98.2

Скриншоты

Альтернативный хост

Торрент перезалит 26.08.2015 в 22:02 в связи с заменой рипа.



Показать сообщения:    

Текущее время: 07-Дек 17:29

Часовой пояс: UTC + 3


Вы не можете начинать темы
Вы не можете отвечать на сообщения
Вы не можете редактировать свои сообщения
Вы не можете удалять свои сообщения
Вы не можете голосовать в опросах
Вы не можете прикреплять файлы к сообщениям
Вы не можете скачивать файлы