Понедельник начинается в субботу (Александр Белинский) [1965, фантастика, телеспектакль, TVRip]


 

[Цитировать]

Понедельник начинается в субботу Год выпуска: 1965.
Жанр: фантастика, телеспектакль.
Продолжительность: 01:02:21.
Режиссер: Александр Белинский.
В ролях:
Владимир Смирнов, Инна Слободская, Леонард Секирин, Виктор Костецкий, Роман Литвинов, Владимир Тыкке, Михаил Розанов, Давид Волосов, Владимир Арсентьев, О. Лянсберг.
О спектакле:
Сказка для научных работников младшего возраста.
Ленинградский программист Александр Привалов во время отпуска поблизости от северного города Соловца подвозит автостопом двух сотрудников местного института. Они устраивают его переночевать в музей института на улице Лукоморье, где его встречает смотрительница музея Наина Киевна Горыныч. Поначалу Привалов воспринимает все как должное, но постепенно он осознает, что в музее и в городе постоянно происходят необычные события...
Идея перенести на экран фантастическую повесть Стругацких, существовавшую тогда ещё только в виде первой части - "Суета вокруг дивана" - пришла в голову режиссеру ленинградского телевидения Александру Аркадьевичу Белинскому. И это был один из первых его телеспектаклей.

Дополнительная информация:
Страна: СССР .
Выпущено: Ленинградское телевидение.
Авторы: Аркадий и Борис Стругацкие.
Художник-постановщик: Валентин Попов.
Музыкальное оформление: Марианна Курилович.
Операторы: Борис Никаноров, Андрей Гусак, Сергей Мищук.
Релиз

Качество видео:...TVRip
Формат:.................AVI
Видео:..640x480 (1.33:1), 25 fps, XviD MPEG-4 ~1426 kbps avg, 0.19 bit/pixel
Аудио:..44.100 kHz, MPEG Layer 3, 2 ch, ~128.00 kbps avg

Отчет Media Info

General
Complete name : Ponedelnik.nachinaetsya.v.subbotu.1965.XviD.TVRip.fenixclub.avi
Format : AVI
Format/Info : Audio Video Interleave
File size : 698 MiB
Duration : 1h 2mn
Overall bit rate : 1 565 Kbps
Writing application : VirtualDubModRus 1.5.10.2 (build 2542/release)
Writing library : VirtualDub build 32842/release
Video
ID : 0
Format : MPEG-4 Visual
Format profile : Advanced Simple@L5
Format settings, BVOP : 2
Format settings, QPel : No
Format settings, GMC : No warppoints
Format settings, Matrix : Default (H.263)
Muxing mode : Packed bitstream
Codec ID : XVID
Codec ID/Hint : XviD
Duration : 1h 2mn
Bit rate : 1 427 Kbps
Width : 640 pixels
Height : 480 pixels
Display aspect ratio : 4:3
Frame rate : 25.000 fps
Color space : YUV
Chroma subsampling : 4:2:0
Bit depth : 8 bits
Scan type : Progressive
Compression mode : Lossy
Bits/(Pixel*Frame) : 0.186
Stream size : 636 MiB (91%)
Writing library : XviD 73
Audio
ID : 1
Format : MPEG Audio
Format version : Version 1
Format profile : Layer 3
Mode : Joint stereo
Mode extension : MS Stereo
Codec ID : 55
Codec ID/Hint : MP3
Duration : 1h 2mn
Bit rate mode : Constant
Bit rate : 128 Kbps
Channel(s) : 2 channels
Sampling rate : 44.1 KHz
Compression mode : Lossy
Stream size : 57.1 MiB (8%)
Alignment : Split accross interleaves
Interleave, duration : 40 ms (1.00 video frame)
Interleave, preload duratio : 500 ms
Writing library : LAME3.98.2

Скриншоты

Альтернативный хост




Показать сообщения:    

Текущее время: 05-Дек 17:36

Часовой пояс: UTC + 3


Вы не можете начинать темы
Вы не можете отвечать на сообщения
Вы не можете редактировать свои сообщения
Вы не можете удалять свои сообщения
Вы не можете голосовать в опросах
Вы не можете прикреплять файлы к сообщениям
Вы не можете скачивать файлы