Саломея (Вениамин Смехов) [2014 г., сценическая читка, SATRip] Государственный музей изобразительных искусств имени А.С. Пушкина


 

[Цитировать]

Саломея Государственный музей изобразительных искусств имени А.С. Пушкина.
Год выпуска: 2014.
Жанр: сценическая читка.
Продолжительность: 00:58:55.
Режиссер: Вениамин Смехов.
Действующие лица и исполнители:
Ирод Антипа, тетрарх Иудеи - Вениамин Смехов,
Иоканаан, пророк - Дмитрий Высоцкий,
Молодой сириец, начальник стражи - Никита Лучихин,
Тигеллин - Сергей Ушаков,
Иродиада, жена тетрарха - Мария Матвеева,
Саломея, дочь Иродиады - Александра Басова.
Описание:
Сценическая читка пьесы Оскара Уайльда "Саломея" состоялась в Пушкинском музее.
В читке приняли участие Вениамин Смехов и артисты театра на Таганке.
Пьеса "Саломея" была написана Оскаром Уайльдом в 1891 году.
Появление в печати трагедии вызвало скандал, поскольку в основе сюжета – история Саломеи, персонажа Нового Завета. Саломея, падчерица тетрарха Ирода Антипы, обольстила его исполнением Танца семи покрывал и потребовала в качестве вознаграждения голову пророка Иоканаана.

Дополнительная информация:
Страна: Россия .
Автор: Оскар Уайльд.
Релиз

Качество видео:...SATRip
Формат:.................AVI
Видео:..720x400 (1.80:1), 25 fps, DivX Codec 6.8.3 ~1519 kbps avg, 0.21 bit/pixel
Аудио:..48 kHz, MPEG Layer 3, 2 ch, ~128.00 kbps avg

Отчет MI

Общее
Полное имя : Salomeya.2014.DivX.SATRip.fenixclub.avi
Format : AVI
Format/Info : Audio Video Interleave
File size : 699 MiB
Duration : 58mn 55s
Overall bit rate : 1 657 Kbps
Writing application : VirtualDubModRus 1.5.10.2 (build 2542/release)
Writing library : VirtualDub build 32842/release
Video
ID : 0
Format : MPEG-4 Visual
Format settings, BVOP : 1
Format settings, QPel : No
Format settings, GMC : No warppoints
Format settings, Matrix : Default (H.263)
Muxing mode : Packed bitstream
Codec ID : DX50
Codec ID/Hint : DivX 5
Duration : 58mn 55s
Bit rate : 1 520 Kbps
Width : 720 pixels
Height : 400 pixels
Display aspect ratio : 16:9
Frame rate : 25.000 fps
Color space : YUV
Chroma subsampling : 4:2:0
Bit depth : 8 bits
Scan type : Progressive
Compression mode : Lossy
Bits/(Pixel*Frame) : 0.211
Stream size : 641 MiB (92%)
Writing library : DivX 6.8.3-6.8.4 (UTC 2008-06-07)
Audio
ID : 1
Format : MPEG Audio
Format version : Version 1
Format profile : Layer 3
Mode : Joint stereo
Mode extension : MS Stereo
Codec ID : 55
Codec ID/Hint : MP3
Duration : 58mn 55s
Bit rate mode : Constant
Bit rate : 128 Kbps
Channel(s) : 2 channels
Sampling rate : 48.0 KHz
Compression mode : Lossy
Stream size : 53.9 MiB (8%)
Alignment : Split accross interleaves
Interleave, duration : 40 ms (1.00 video frame)
Interleave, preload duratio : 500 ms
Writing library : LAME3.98.2

Скриншоты

Альтернативный хост




Показать сообщения:    

Текущее время: 04-Дек 23:24

Часовой пояс: UTC + 3


Вы не можете начинать темы
Вы не можете отвечать на сообщения
Вы не можете редактировать свои сообщения
Вы не можете удалять свои сообщения
Вы не можете голосовать в опросах
Вы не можете прикреплять файлы к сообщениям
Вы не можете скачивать файлы