Мотылек (Евгений Каменькович) [2006 г., утопическая мелодрама, VHSRip] Московский театр "Мастерская Петра Фоменко"


 

[Цитировать]

Мотылек Название театра: Московский театр "Мастерская Петра Фоменко".
Год выпуска: 2006.
Жанр: утопическая мелодрама в 5-ти картинах.
Продолжительность: 01:44:44.
Режиссеры: заслуженный деятель искусств РФ Евгений Каменькович, Александр Смирнов.
Действующие лица и исполнители:
Рядовой Лебедушкин - Полина Кутепова,
Полковник - Юрий Степанов,
Капитан - Тагир Рахимов,
Адъютант - Анатолий Горячев,
Военврач - Олег Нирян.
О спектакле:
В затерянной на севере военной десантной части случилось невозможное. Уж слишком велика была у одного из рядовых тяга к театру и дому...
Дополнительная информация:
Страна: Россия .
Выпущено: © Московский театр "Мастерская Петра Фоменко", "Культу.Ру!".
Автор: Петр Гладилин.
Режиссер спектакля: заслуженный деятель искусств РФ Евгений Каменькович.
Сценография: Владимир Максимов.
Художник по свету: Владислав Фролов.
Художник по костюмам: Валерия Курочкина.
Музыкальное оформление: Владимир Муат.
Премьера спектакля состоялась 17 декабря 2002 года.
Режиссер телеверсии: Александр Смирнов.
Оператор-постановщик: Владимир Иванов.

О спектакле.
Релиз

Качество видео:...VHSRip
Формат:.................AVI
Видео:..640x368 (1.74:1), 25 fps, DivX Codec 6.8.3 ~1724 kbps avg, 0.29 bit/pixel
Аудио:..48 kHz, MPEG Layer 3, 2 ch, ~128.00 kbps avg

Отчет MI

Общее
Полное имя : Motylek_Masterskkaya.Fomenko.2006.DivX.VHSRip.fenixclub.avi
Format : AVI
Format/Info : Audio Video Interleave
File size : 1.36 GiB
Duration : 1h 44mn
Overall bit rate : 1 862 Kbps
Writing application : VirtualDubModRus 1.5.10.2 (build 2542/release)
Writing library : VirtualDub build 32842/release
Video
ID : 0
Format : MPEG-4 Visual
Format settings, BVOP : 1
Format settings, QPel : No
Format settings, GMC : No warppoints
Format settings, Matrix : Default (H.263)
Muxing mode : Packed bitstream
Codec ID : DX50
Codec ID/Hint : DivX 5
Duration : 1h 44mn
Bit rate : 1 725 Kbps
Width : 640 pixels
Height : 368 pixels
Display aspect ratio : 1.739
Frame rate : 25.000 fps
Color space : YUV
Chroma subsampling : 4:2:0
Bit depth : 8 bits
Scan type : Progressive
Compression mode : Lossy
Bits/(Pixel*Frame) : 0.293
Stream size : 1.26 GiB (93%)
Writing library : DivX 6.8.3-6.8.4 (UTC 2008-06-07)
Audio
ID : 1
Format : MPEG Audio
Format version : Version 1
Format profile : Layer 3
Mode : Joint stereo
Mode extension : MS Stereo
Codec ID : 55
Codec ID/Hint : MP3
Duration : 1h 44mn
Bit rate mode : Constant
Bit rate : 128 Kbps
Channel(s) : 2 channels
Sampling rate : 48.0 KHz
Compression mode : Lossy
Stream size : 95.9 MiB (7%)
Alignment : Split accross interleaves
Interleave, duration : 40 ms (1.00 video frame)
Interleave, preload duratio : 500 ms
Writing library : LAME3.98.2

Скриншоты

Альтернативный хост




Показать сообщения:    

Текущее время: 08-Дек 07:08

Часовой пояс: UTC + 3


Вы не можете начинать темы
Вы не можете отвечать на сообщения
Вы не можете редактировать свои сообщения
Вы не можете удалять свои сообщения
Вы не можете голосовать в опросах
Вы не можете прикреплять файлы к сообщениям
Вы не можете скачивать файлы