Последняя жертва (Юрий Еремин) [2004, драма, DVB] Московский Художественный театр


 

[Цитировать]

Последняя жертва
Название театра: Московский Художественный театр
Жанр: драма
Год выпуска: 2004
Продолжительность: 01:23:55 + 01:12:20
Режиссёр: Юрий Еремин
В ролях: Марина Зудина, Олег Табаков, Максим Матвеев, Ольга Барнет, Валерий Хлевинский, Дарья Юрская, Наталья Журавлева, Игорь Золотовицкий, Игорь Петров, Вячеслав Невинный-мл. Наталья Бочкарева, Григорий Рыжиков, Николай Исаков.
Описание: По мотивам пьессы Островского
Доп. информация:
Запись потока *.ts со спутника Экспресс АМ7, 40° в.д., ремукс в *.mpg , удаление рекламы программой VideoReDo.
Качество видео: DVB
Формат видео: MPEG-PS
Видео: MPEG2 Video, 720(768)x576 (4:3), 25,000 кадров/сек, 5326 Кбит/сек
Аудио: MPEG Audio, 48,0 КГц, 256 Кбит/сек, 2 канала

MediaInfo

Общее
Полное имя : D:\MPG\ПОСЛЕДНЯЯ ЖЕРТВА\ПОСЛЕДНЯЯ ЖЕРТВА 1 (Kultura 40).mpg
Формат : MPEG-PS
Размер файла : 3,34 Гбайт
Продолжительность : 1 ч. 23 м.
Режим общего битрейта : Переменный
Общий поток : 5695 Кбит/сек
Видео
Идентификатор : 224 (0xE0)
Формат : MPEG Video
Версия формата : Version 2
Профиль формата : Main@Main
Параметр BVOP формата : Да
Параметр матрицы формата : Выборочная
Параметр GOP формата : M=3, N=15
Продолжительность : 1 ч. 23 м.
Вид битрейта : Переменный
Битрейт : 5326 Кбит/сек
Максимальный битрейт : 15,0 Мбит/сек
Ширина : 720 пикселей
Высота : 576 пикселей
Соотношение сторон : 4:3
Частота кадров : 25,000 кадров/сек
Стандарт вещания : PAL
Цветовое пространство : YUV
Субдискретизация насыщенности : 4:2:0
Битовая глубина : 8 бит
Тип развёртки : Чересстрочная
Порядок развёртки : Верхнее поле первое
Метод сжатия : С потерями
Бит/(Пиксели*Кадры) : 0.514
Временной код первого кадра : 00:00:00:00
Оригинал временного кода : Group of pictures header
Размер потока : 3,12 Гбайт (94%)
Аудио
Идентификатор : 192 (0xC0)
Формат : MPEG Audio
Версия формата : Version 1
Профиль формата : Layer 2
Продолжительность : 1 ч. 23 м.
Вид битрейта : Постоянный
Битрейт : 256 Кбит/сек
Каналы : 2 канала
Частота : 48,0 КГц
Метод сжатия : С потерями
Задержка видео : 1 мс.
Размер потока : 154 Мбайт (4%)
Общее
Полное имя : D:\MPG\ПОСЛЕДНЯЯ ЖЕРТВА\ПОСЛЕДНЯЯ ЖЕРТВА 2 (Kultura 40).mpg
Формат : MPEG-PS
Размер файла : 2,88 Гбайт
Продолжительность : 1 ч. 12 м.
Режим общего битрейта : Переменный
Общий поток : 5695 Кбит/сек
Видео
Идентификатор : 224 (0xE0)
Формат : MPEG Video
Версия формата : Version 2
Профиль формата : Main@Main
Параметр BVOP формата : Да
Параметр матрицы формата : Выборочная
Параметр GOP формата : M=3, N=15
Продолжительность : 1 ч. 12 м.
Вид битрейта : Переменный
Битрейт : 5326 Кбит/сек
Максимальный битрейт : 15,0 Мбит/сек
Ширина : 720 пикселей
Высота : 576 пикселей
Соотношение сторон : 4:3
Частота кадров : 25,000 кадров/сек
Стандарт вещания : PAL
Цветовое пространство : YUV
Субдискретизация насыщенности : 4:2:0
Битовая глубина : 8 бит
Тип развёртки : Чересстрочная
Порядок развёртки : Верхнее поле первое
Метод сжатия : С потерями
Бит/(Пиксели*Кадры) : 0.514
Временной код первого кадра : 00:00:00:00
Оригинал временного кода : Group of pictures header
Размер потока : 2,69 Гбайт (94%)
Аудио
Идентификатор : 192 (0xC0)
Формат : MPEG Audio
Версия формата : Version 1
Профиль формата : Layer 2
Продолжительность : 1 ч. 12 м.
Вид битрейта : Постоянный
Битрейт : 256 Кбит/сек
Каналы : 2 канала
Частота : 48,0 КГц
Метод сжатия : С потерями
Задержка видео : 9 мс.
Размер потока : 132 Мбайт (4%)

Скриншот с названием постановки

Скриншоты




Показать сообщения:    

Текущее время: 22-Янв 04:40

Часовой пояс: UTC + 3


Вы не можете начинать темы
Вы не можете отвечать на сообщения
Вы не можете редактировать свои сообщения
Вы не можете удалять свои сообщения
Вы не можете голосовать в опросах
Вы не можете прикреплять файлы к сообщениям
Вы не можете скачивать файлы