Амадей (Марк Розовский) [2003, драма, DVB] МХАТ им. Чехова


 

[Цитировать]

Амадей
Название театра: МХАТ им. Чехова
Жанр: драма
Год выпуска: 2003
Продолжительность: 01:23:07 + 01:09:29
Режиссёр: Марк Розовский
В ролях: Олег Табаков, Сергей Безруков, Евгения Добровольская, Владлен Давыдов, Андрей Давыдов, Сергей Десницкий, Вячеслав Жолобов, Виктор Кулюxин, Андрей Тубелис, Андрей Бирин, Анатолий Фечин, Никита Тарасов, Петр Баранчеев, Борис Коростелев, Александр Фисенко, Галина Киндинова, Алена Хованская, Ирина Гришина, Виктор Кулюxин, Екатерина Соломатина, Мария Зорина, Коринна Прохаска, Анастасия Буцкова, Александр Стефанцов, Олег Мазуров, Николай Исаков
Описание: История величайшего музыканта и композитора восемнадцатого века Вольфганга Амадея Моцарта, написанная драматургом Питером Шеффером,стала основой для множества спектаклей и кинофильмов. Блеск и интриги австрийского двора, творческие муки гения, козни его завистников и,конечно же, бессмертная музыка Моцарта увлекают зрителей и по сей день.
Доп. информация:
Запись потока *.ts со спутника Экспресс АМ7, 40° в.д., ремукс в *.mpg , удаление рекламы программой VideoReDo.
Качество видео: DVB
Формат видео: MPEG-PS
Видео: MPEG2 Video, 720(768)x576 (4:3), 25,000 кадров/сек, 5326 Кбит/сек
Аудио: MPEG Audio, 48,0 КГц, 256 Кбит/сек, 2 канала

MediaInfo

Общее
Полное имя : D:\MPG\АМАДЕЙ\АМАДЕЙ 1 (Kultura 40).mpg
Формат : MPEG-PS
Размер файла : 3,31 Гбайт
Продолжительность : 1 ч. 23 м.
Режим общего битрейта : Переменный
Общий поток : 5695 Кбит/сек
Видео
Идентификатор : 224 (0xE0)
Формат : MPEG Video
Версия формата : Version 2
Профиль формата : Main@Main
Параметр BVOP формата : Да
Параметр матрицы формата : Выборочная
Параметр GOP формата : M=3, N=15
Продолжительность : 1 ч. 23 м.
Вид битрейта : Переменный
Битрейт : 5326 Кбит/сек
Максимальный битрейт : 15,0 Мбит/сек
Ширина : 720 пикселей
Высота : 576 пикселей
Соотношение сторон : 4:3
Частота кадров : 25,000 кадров/сек
Стандарт вещания : PAL
Цветовое пространство : YUV
Субдискретизация насыщенности : 4:2:0
Битовая глубина : 8 бит
Тип развёртки : Чересстрочная
Порядок развёртки : Верхнее поле первое
Метод сжатия : С потерями
Бит/(Пиксели*Кадры) : 0.514
Временной код первого кадра : 00:00:00:00
Оригинал временного кода : Group of pictures header
Размер потока : 3,09 Гбайт (94%)
Аудио
Идентификатор : 192 (0xC0)
Формат : MPEG Audio
Версия формата : Version 1
Профиль формата : Layer 2
Продолжительность : 1 ч. 23 м.
Вид битрейта : Постоянный
Битрейт : 256 Кбит/сек
Каналы : 2 канала
Частота : 48,0 КГц
Метод сжатия : С потерями
Задержка видео : 17 мс.
Размер потока : 152 Мбайт (4%)
Общее
Полное имя : D:\MPG\АМАДЕЙ\АМАДЕЙ 2 (Kultura 40).mpg
Формат : MPEG-PS
Размер файла : 2,76 Гбайт
Продолжительность : 1 ч. 9 м.
Режим общего битрейта : Переменный
Общий поток : 5695 Кбит/сек
Видео
Идентификатор : 224 (0xE0)
Формат : MPEG Video
Версия формата : Version 2
Профиль формата : Main@Main
Параметр BVOP формата : Да
Параметр матрицы формата : Выборочная
Параметр GOP формата : M=3, N=15
Продолжительность : 1 ч. 9 м.
Вид битрейта : Переменный
Битрейт : 5326 Кбит/сек
Максимальный битрейт : 15,0 Мбит/сек
Ширина : 720 пикселей
Высота : 576 пикселей
Соотношение сторон : 4:3
Частота кадров : 25,000 кадров/сек
Стандарт вещания : PAL
Цветовое пространство : YUV
Субдискретизация насыщенности : 4:2:0
Битовая глубина : 8 бит
Тип развёртки : Чересстрочная
Порядок развёртки : Верхнее поле первое
Метод сжатия : С потерями
Бит/(Пиксели*Кадры) : 0.514
Временной код первого кадра : 00:00:00:00
Оригинал временного кода : Group of pictures header
Размер потока : 2,59 Гбайт (94%)
Аудио
Идентификатор : 192 (0xC0)
Формат : MPEG Audio
Версия формата : Version 1
Профиль формата : Layer 2
Продолжительность : 1 ч. 9 м.
Вид битрейта : Постоянный
Битрейт : 256 Кбит/сек
Каналы : 2 канала
Частота : 48,0 КГц
Метод сжатия : С потерями
Задержка видео : 9 мс.
Размер потока : 127 Мбайт (4%)

Скриншот с названием постановки

Скриншоты




Показать сообщения:    

Текущее время: 08-Дек 01:20

Часовой пояс: UTC + 3


Вы не можете начинать темы
Вы не можете отвечать на сообщения
Вы не можете редактировать свои сообщения
Вы не можете удалять свои сообщения
Вы не можете голосовать в опросах
Вы не можете прикреплять файлы к сообщениям
Вы не можете скачивать файлы