Сублимация любви (Александр Марин) [2007, комедия, DVB] Театр под руководством О. Табакова


 

[Цитировать]

Сублимация любви
Название театра: Театр под руководством О. Табакова
Жанр: комедия
Год выпуска: 2007
Продолжительность: 00:52:21 + 01:01:09
Режиссёр: Александр Марин
В ролях: Олег Табаков, Марина Зудина, Виталий Егоров.
Описание: Действие пьесы происходит в Риме, в доме видного политического деятеля, который при странных обстоятельствах знакомится с молодым и талантливым, но неудачливым драматургом. Депутат соглашается издавать его пьесы под своим именем. В сюжете легко и остроумно переплетаются политика, искусство и любовь.
Доп. информация:
Запись потока *.ts со спутника Экспресс АМ7, 40° в.д., ремукс в *.mpg , удаление рекламы программой VideoReDo.
Качество видео: DVB
Формат видео: MPEG-PS
Видео: MPEG2 Video, 720(768)x576 (4:3), 25,000 кадров/сек, 5326 Кбит/сек
Аудио: MPEG Audio, 48,0 КГц, 256 Кбит/сек, 2 канала

MediaInfo

Общее
Полное имя : D:\MPG\СУБЛИМАЦИЯ ЛЮБВИ\СУБЛИМАЦИЯ ЛЮБВИ 1 (Kultura 40).mpg
Формат : MPEG-PS
Размер файла : 2,08 Гбайт
Продолжительность : 52 м.
Режим общего битрейта : Переменный
Общий поток : 5695 Кбит/сек
Видео
Идентификатор : 224 (0xE0)
Формат : MPEG Video
Версия формата : Version 2
Профиль формата : Main@Main
Параметр BVOP формата : Да
Параметр матрицы формата : Выборочная
Параметр GOP формата : M=3, N=15
Продолжительность : 52 м.
Вид битрейта : Переменный
Битрейт : 5326 Кбит/сек
Максимальный битрейт : 15,0 Мбит/сек
Ширина : 720 пикселей
Высота : 576 пикселей
Соотношение сторон : 4:3
Частота кадров : 25,000 кадров/сек
Стандарт вещания : PAL
Цветовое пространство : YUV
Субдискретизация насыщенности : 4:2:0
Битовая глубина : 8 бит
Тип развёртки : Чересстрочная
Порядок развёртки : Верхнее поле первое
Метод сжатия : С потерями
Бит/(Пиксели*Кадры) : 0.514
Временной код первого кадра : 00:00:00:00
Оригинал временного кода : Group of pictures header
Размер потока : 1,95 Гбайт (94%)
Аудио
Идентификатор : 192 (0xC0)
Формат : MPEG Audio
Версия формата : Version 1
Профиль формата : Layer 2
Продолжительность : 52 м.
Вид битрейта : Постоянный
Битрейт : 256 Кбит/сек
Каналы : 2 канала
Частота : 48,0 КГц
Метод сжатия : С потерями
Задержка видео : 1 мс.
Размер потока : 95,9 Мбайт (4%)
Общее
Полное имя : D:\MPG\СУБЛИМАЦИЯ ЛЮБВИ\СУБЛИМАЦИЯ ЛЮБВИ 2 (Kultura 40).mpg
Формат : MPEG-PS
Размер файла : 2,43 Гбайт
Продолжительность : 1 ч. 1 м.
Режим общего битрейта : Переменный
Общий поток : 5695 Кбит/сек
Видео
Идентификатор : 224 (0xE0)
Формат : MPEG Video
Версия формата : Version 2
Профиль формата : Main@Main
Параметр BVOP формата : Да
Параметр матрицы формата : Выборочная
Параметр GOP формата : M=3, N=15
Продолжительность : 1 ч. 1 м.
Вид битрейта : Переменный
Битрейт : 5326 Кбит/сек
Максимальный битрейт : 15,0 Мбит/сек
Ширина : 720 пикселей
Высота : 576 пикселей
Соотношение сторон : 4:3
Частота кадров : 25,000 кадров/сек
Стандарт вещания : PAL
Цветовое пространство : YUV
Субдискретизация насыщенности : 4:2:0
Битовая глубина : 8 бит
Тип развёртки : Чересстрочная
Порядок развёртки : Верхнее поле первое
Метод сжатия : С потерями
Бит/(Пиксели*Кадры) : 0.514
Временной код первого кадра : 00:00:00:00
Оригинал временного кода : Group of pictures header
Размер потока : 2,28 Гбайт (94%)
Аудио
Идентификатор : 192 (0xC0)
Формат : MPEG Audio
Версия формата : Version 1
Профиль формата : Layer 2
Продолжительность : 1 ч. 1 м.
Вид битрейта : Постоянный
Битрейт : 256 Кбит/сек
Каналы : 2 канала
Частота : 48,0 КГц
Метод сжатия : С потерями
Задержка видео : 9 мс.
Размер потока : 112 Мбайт (4%)

Скриншот с названием постановки

Скриншоты




Показать сообщения:    

Текущее время: 04-Дек 09:09

Часовой пояс: UTC + 3


Вы не можете начинать темы
Вы не можете отвечать на сообщения
Вы не можете редактировать свои сообщения
Вы не можете удалять свои сообщения
Вы не можете голосовать в опросах
Вы не можете прикреплять файлы к сообщениям
Вы не можете скачивать файлы