Семья как семья / Коробовы встречают Новый год (Борис Ниренбург) [1970, Драма, SATRip-AVC]


 

[Цитировать]

-Семья как семья / Коробовы встречают Новый год- Жанр: Драма
Год выпуска: 1970
Продолжительность: 01:10:28-Режиссёр: Борис Ниренбург-В ролях: Людмила Целиковская, Александр Граве, Евгений Карельских, Владимир Иванов, Т. Михайлова, Эльвира Луценко, Михаил Погоржельский, Нелли Пшенная, Юрий Волынцев, Александр Халецкий, Н. Семенова, С. Бондарева, Н. Дорошенко, И. Костолевский, С. Проханов-Описание: В центре фильма — семья мастера трикотажной фабрики Коробова. Молодые Коробовы решают встречать Новый год со своими друзьями. Огорченные их уходом, старики остаются одни. Но сколь велика была их радость, когда дети вместе с друзьями возвращаются домой.-Доп. информация:

Производство: ТО "Экран", СССР, 1970 г.
Сценарий: Валентина Спирина
Оператор: Юрий Журавлев
Композитор: Владислав Агафонников
Художник: И. Литвин
Премьера: 31 декабря 1970 года
Возраст: 12+-Семпл: https://yadi.sk/i/gS4QRCXEibCz8-Качество видео: SATRip-AVC
Формат видео: MKV
Видео кодек: H.264
Аудио кодек: AC3
Видео: 720x536 (1.34:1), 25 fps, ~2021 kbps
Аудио: 48 kHz, AC3 Dolby Digital, 2/0 (L,R) ch, ~192 kbps

MediaInfo

General
Unique ID : 245283374717638417292841761357062303263 (0xB887DC103F29F7B5A9CF531DA8096E1F)
Complete name : C:\Torrent\Семья как семья.1970.SATRip-AVC by Dmitrio7197\Семья как семья.1970.SATRip-AVC by Dmitrio7197.mkv
Format : Matroska
Format version : Version 2
File size : 1.09 GiB
Duration : 1h 10mn
Overall bit rate : 2 215 Kbps
Encoded date : UTC 2015-08-21 01:06:33
Writing application : mkvmerge v6.1.0 ('Old Devil') built on Mar 4 2013 09:10:42
Writing library : libebml v1.3.0 + libmatroska v1.4.0
Video
ID : 1
Format : AVC
Format/Info : Advanced Video Codec
Format profile : High@L4.1
Format settings, CABAC : Yes
Format settings, ReFrames : 8 frames
Codec ID : V_MPEG4/ISO/AVC
Duration : 1h 10mn
Bit rate : 2 021 Kbps
Width : 720 pixels
Height : 536 pixels
Display aspect ratio : 4:3
Frame rate mode : Constant
Frame rate : 25.000 fps
Color space : YUV
Chroma subsampling : 4:2:0
Bit depth : 8 bits
Scan type : Progressive
Bits/(Pixel*Frame) : 0.209
Stream size : 997 MiB (89%)
Writing library : x264 core 130 r2273 b3065e6
Encoding settings : cabac=1 / ref=8 / deblock=1:0:0 / analyse=0x3:0x113 / me=umh / subme=11 / psy=1 / psy_rd=1.00:0.00 / mixed_ref=1 / me_range=24 / chroma_me=1 / trellis=2 / 8x8dct=1 / cqm=0 / deadzone=21,11 / fast_pskip=1 / chroma_qp_offset=-2 / threads=6 / lookahead_threads=1 / sliced_threads=0 / nr=0 / decimate=0 / interlaced=0 / bluray_compat=0 / constrained_intra=0 / bframes=8 / b_pyramid=2 / b_adapt=1 / b_bias=0 / direct=3 / weightb=1 / open_gop=0 / weightp=2 / keyint=250 / keyint_min=25 / scenecut=40 / intra_refresh=0 / rc_lookahead=40 / rc=2pass / mbtree=1 / bitrate=2021 / ratetol=1.0 / qcomp=0.60 / qpmin=0 / qpmax=69 / qpstep=4 / cplxblur=20.0 / qblur=0.5 / ip_ratio=1.40 / aq=1:1.00
Default : Yes
Forced : No
Audio
ID : 2
Format : AC-3
Format/Info : Audio Coding 3
Mode extension : CM (complete main)
Format settings, Endianness : Big
Codec ID : A_AC3
Duration : 1h 10mn
Bit rate mode : Constant
Bit rate : 192 Kbps
Channel(s) : 2 channels
Channel positions : Front: L R
Sampling rate : 48.0 KHz
Bit depth : 16 bits
Compression mode : Lossy
Stream size : 96.8 MiB (9%)
Default : Yes
Forced : No

Скриншоты

-



Показать сообщения:    

Текущее время: 04-Дек 09:08

Часовой пояс: UTC + 3


Вы не можете начинать темы
Вы не можете отвечать на сообщения
Вы не можете редактировать свои сообщения
Вы не можете удалять свои сообщения
Вы не можете голосовать в опросах
Вы не можете прикреплять файлы к сообщениям
Вы не можете скачивать файлы