Железная женщина (Олимжон Салимов) [1989 г., комедия, телеспектакль, TVRip] Ферганский театр музыкальной драмы и комедии


 

[Цитировать]

Железная женщина (2 серии) Название театра: Ферганский театр музыкальной драмы и комедии.
Год выпуска: 1970.
Жанр: комедия, телеспектакль.
Продолжительность: 01:14:17 + 00:59:23 (02:13:40).
Перевод: одноголосый закадровый.
Режиссер: Олимжон Салимов.
Действующие лица и исполнители:
Кучкар - М. Юсупов,
Аломат - А. Шаваева,
Алимджан - Г. Сабиров,
Кумри - М. Абдурахимова,
Салтанат - Х. Хаджинабиева,
Шарафат - М. Таирова,
Суван - Д. Ахунов,
Турабджан - Б. Султанов.
Описание:
Надоело, что жена постоянно пилит, ворчит, ругается, не дает повеселиться с друзьями, просто полежать, подумать... Было бы хорошо, если бы жена делала все по дому, работала без устали, никогда ни в чем не упрекала, а только хвалила, проявляла нежность, ласку и заботу. Думаете, такое возможно? Да, вполне реально, даже в небольшом ауле.
Кучкар, пьяный, привязанный к дереву. Кумри обидевшись на мужа, собрав детей уходит к родителям. А бедный Кучкар, вместо того, что бы вернуть жену, собирается вступить в брак с роботом, которого придумал молодой ученый. Но, его надежда о счастливой жизни не оправдывается. Ему приходится повиноваться железным правилом железной женщины. Только тогда он начинает ценить свою жену.

Доп. информация:
Страна: СССР .
Выпущено: Главная редакция литературно-драматических программ ЦТ.
Автор: Шараф Башбеков.
Художник: Виктор Михайличенко.
Релиз

Качество: TVRip
Формат: AVI
Видео: 720x544 (1.32:1), 25 fps, XviD MPEG-4 ~1423 kbps avg, 0.14 bit/pixel
Аудио: 48 kHz, MPEG Layer 3, 2 ch, ~128.00 kbps avg

Отчет MI

1-я серия:
General
Complete name : Zheleznaya.zhenwina_Ferganskij.TMDiK.(2.serii.iz.2).1989.XviD.TVRip.fenixclub\Zheleznaya.zhenwina_Ferganskij.TMDiK.(1.seriya).1989.avi
Format : AVI
Format/Info : Audio Video Interleave
File size : 830 MiB
Duration : 1h 14mn
Overall bit rate : 1 562 Kbps
Writing application : VirtualDubModRus 1.5.10.2 (build 2542/release)
Writing library : VirtualDub build 32842/release
Video
ID : 0
Format : MPEG-4 Visual
Format profile : Advanced Simple@L5
Format settings, BVOP : 2
Format settings, QPel : No
Format settings, GMC : No warppoints
Format settings, Matrix : Default (H.263)
Muxing mode : Packed bitstream
Codec ID : XVID
Codec ID/Hint : XviD
Duration : 1h 14mn
Bit rate : 1 424 Kbps
Width : 720 pixels
Height : 544 pixels
Display aspect ratio : 4:3
Frame rate : 25.000 fps
Color space : YUV
Chroma subsampling : 4:2:0
Bit depth : 8 bits
Scan type : Progressive
Compression mode : Lossy
Bits/(Pixel*Frame) : 0.145
Stream size : 757 MiB (91%)
Writing library : XviD 73
Audio
ID : 1
Format : MPEG Audio
Format version : Version 1
Format profile : Layer 3
Mode : Joint stereo
Mode extension : MS Stereo
Codec ID : 55
Codec ID/Hint : MP3
Duration : 1h 14mn
Bit rate mode : Constant
Bit rate : 128 Kbps
Channel(s) : 2 channels
Sampling rate : 48.0 KHz
Compression mode : Lossy
Stream size : 68.0 MiB (8%)
Alignment : Split accross interleaves
Interleave, duration : 40 ms (1.00 video frame)
Interleave, preload duratio : 500 ms.
2-я серия:
General
Complete name : Zheleznaya.zhenwina_Ferganskij.TMDiK.(2.serii.iz.2).1989.XviD.TVRip.fenixclub\Zheleznaya.zhenwina_Ferganskij.TMDiK.(2.seriya).1989.avi
Format : AVI
Format/Info : Audio Video Interleave
File size : 663 MiB
Duration : 59mn 22s
Overall bit rate : 1 562 Kbps
Writing application : VirtualDubModRus 1.5.10.2 (build 2542/release)
Writing library : VirtualDub build 32842/release
Video
ID : 0
Format : MPEG-4 Visual
Format profile : Advanced Simple@L5
Format settings, BVOP : 2
Format settings, QPel : No
Format settings, GMC : No warppoints
Format settings, Matrix : Default (H.263)
Muxing mode : Packed bitstream
Codec ID : XVID
Codec ID/Hint : XviD
Duration : 59mn 22s
Bit rate : 1 424 Kbps
Width : 720 pixels
Height : 544 pixels
Display aspect ratio : 4:3
Frame rate : 25.000 fps
Color space : YUV
Chroma subsampling : 4:2:0
Bit depth : 8 bits
Scan type : Progressive
Compression mode : Lossy
Bits/(Pixel*Frame) : 0.145
Stream size : 605 MiB (91%)
Writing library : XviD 73
Audio
ID : 1
Format : MPEG Audio
Format version : Version 1
Format profile : Layer 3
Mode : Joint stereo
Mode extension : MS Stereo
Codec ID : 55
Codec ID/Hint : MP3
Duration : 59mn 22s
Bit rate mode : Constant
Bit rate : 128 Kbps
Channel(s) : 2 channels
Sampling rate : 48.0 KHz
Compression mode : Lossy
Stream size : 54.4 MiB (8%)
Alignment : Split accross interleaves
Interleave, duration : 40 ms (1.00 video frame)
Interleave, preload duratio : 500 ms.

Скриншоты

Альтернативный хост




Показать сообщения:    

Текущее время: 08-Дек 03:10

Часовой пояс: UTC + 3


Вы не можете начинать темы
Вы не можете отвечать на сообщения
Вы не можете редактировать свои сообщения
Вы не можете удалять свои сообщения
Вы не можете голосовать в опросах
Вы не можете прикреплять файлы к сообщениям
Вы не можете скачивать файлы