Нахлебник (Олег Соловьев) [1970 г., комедия, телеспектакль, TVRip] Ленинградский театр драмы им. А.С.Пушкина (сейчас Александринский театр)


 

[Цитировать]

Нахлебник Название театра: Ленинградский театр драмы им. А.С.Пушкина (сейчас Александринский театр).
Год выпуска: 1970.
Жанр: комедия, телеспектакль.
Продолжительность: 01:42:34.
Режиссеры: Олег Соловьев, Яков Крейлис.
В ролях:
Павел Николаевич Елецкий - Николай Мартон,
Ольга Петровна Елецкая - Тамара Колесникова,
Василий Семенович Кузовкин - Александр Борисов,
Флегонт Александрыч Тропачев - Константин Адашевский,
Иван Кузьмич Иванов - Алексей Ян,
Карпачев - Владимир Петров,
Нарцыс Трембинский - Юрий Свирин,
Егор Карташев - Константин Калинис,
Прасковья Ивановна - Елена Карякина,
Петр - Валерий Ольшанский,
Маша - Светлана Гармаш,
Анпадист - Алексей Драницын,
Васька - Л. Воронцова.
Описание:
Обнищавший дворянин Кузовкин, живет приживалой при отце Ольги в имении ее семьи. Проходит двенадцать лет, повзрослевшая Оля после замужества приезжает в свой старый дом. И снова весь свет начинает потешаться над Кузовкиным, который и у бывших покойных хозяевах выступал в роли шута. В конце концов, ему это все надоедает, и он открывает всем страшную тайну об Ольге...
Доп. информация:
Страна: СССР .
Выпущено: Ленинградское телевидение.
Автор: Иван Тургенев.
Режиссер спектакля: Олег Соловьев.
Композитор: Вячеслав Наговицын.
Художник: Татьяна Елагина.
Руководитель постановки: Владимир Эренберг.
Режиссер телеверсии: Яков Крейлис.
Ведущий оператор: В. Голянский.

Релиз

Качество: TVRip
Формат: AVI
Видео: 640x480 (1.33:1), 25 fps, XviD MPEG-4 ~1769 kbps avg, 0.23 bit/pixel
Аудио: 44.100 kHz, MPEG Layer 3, 2 ch, ~128.00 kbps avg

Отчет MI

General
Complete name : Naxlebnik.1970.XviD.TVRip.fenixclub.avi
Format : AVI
Format/Info : Audio Video Interleave
File size : 1.37 GiB
Duration : 1h 42mn
Overall bit rate : 1 908 Kbps
Writing application : VirtualDubModRus 1.5.10.2 (build 2542/release)
Writing library : VirtualDub build 32842/release
Video
ID : 0
Format : MPEG-4 Visual
Format profile : Advanced Simple@L5
Format settings, BVOP : 2
Format settings, QPel : No
Format settings, GMC : No warppoints
Format settings, Matrix : Default (H.263)
Muxing mode : Packed bitstream
Codec ID : XVID
Codec ID/Hint : XviD
Duration : 1h 42mn
Bit rate : 1 770 Kbps
Width : 640 pixels
Height : 480 pixels
Display aspect ratio : 4:3
Frame rate : 25.000 fps
Color space : YUV
Chroma subsampling : 4:2:0
Bit depth : 8 bits
Scan type : Progressive
Compression mode : Lossy
Bits/(Pixel*Frame) : 0.230
Stream size : 1.27 GiB (93%)
Writing library : XviD 73
Audio
ID : 1
Format : MPEG Audio
Format version : Version 1
Format profile : Layer 3
Mode : Joint stereo
Mode extension : MS Stereo
Codec ID : 55
Codec ID/Hint : MP3
Duration : 1h 42mn
Bit rate mode : Constant
Bit rate : 128 Kbps
Channel(s) : 2 channels
Sampling rate : 44.1 KHz
Compression mode : Lossy
Stream size : 93.9 MiB (7%)
Alignment : Split accross interleaves
Interleave, duration : 40 ms (1.00 video frame)
Interleave, preload duratio : 500 ms
Writing library : LAME3.98.2

Скриншоты

Альтернативный хост




Показать сообщения:    

Текущее время: 09-Дек 12:47

Часовой пояс: UTC + 3


Вы не можете начинать темы
Вы не можете отвечать на сообщения
Вы не можете редактировать свои сообщения
Вы не можете удалять свои сообщения
Вы не можете голосовать в опросах
Вы не можете прикреплять файлы к сообщениям
Вы не можете скачивать файлы