Непобедимая Армада (Евгений Славутин) [2013 г., комедия, SATRip] Московский театр МОСТ


 

[Цитировать]

Непобедимая Армада Название театра: Московский театр МОСТ.
Год выпуска: 2013.
Жанр: комедия.
Продолжительность: 01:34:33 + 00:39:05 (02:13:38).
Режиссёр: Евгений Славутин.
Действующие лица и исполнители:
Эрнандо - Евгений Панферов,
Бернардо де Кардан - Юрий Огульник,
Диего - Евгений Кравченко,
Кларисса - Екатерина Алексашина,
Элиза - Вера Семенова,
Арманда - Яна Лемешко,
Дористео - Илья Кожухарь,
Рикардо - Олег Никитук,
Фортунато - Алексей Захаров,
Иванка - Елизавета Вельгий.
Описание:
По пьесе Лопе де Вега "Изобретательная влюбленная" в вольном поэтическом переводе Виктора Коркии.
Спектакль переносит зрителей в средневековую Испанию. Горячая кровь и пламенные страсти, нежные серенады и любовь. Разумеется, много любви. Сохраняя дух комедии "плаща и шпаги", режиссёр Евгений Славутин привносит в классическую историю стремительность сегодняшнего дня и легкость поэтического полета.

Дополнительная информация:
Страна: Россия .
Автор: Лопе де Вега.
Перевод: Виктор Коркия.

О спектакле.
Релиз

Качество видео:...SATRip
Формат:.................AVI
Видео:..720x400 (1.80:1), 25 fps, XviD MPEG-4 ~1425 kbps avg, 0.20 bit/pixel
Аудио:..48 kHz, MPEG Layer 3, 2 ch, ~128.00 kbps avg

Отчет MediaInfo

1-е действие:
Общее
Полное имя : Nepobedimaya.Armada_Moskovskij.teatr.MOST.(2.dejstviya.iz.2).2013.XviD.SATRip.fenixclub\Nepobedimaya.Armada.(1-e.dejstvie).2013.avi
Format : AVI
Format/Info : Audio Video Interleave
File size : 1.03 GiB
Duration : 1h 34mn
Overall bit rate : 1 563 Kbps
Writing application : VirtualDubModRus 1.5.10.2 (build 2542/release)
Writing library : VirtualDub build 32842/release
Video
ID : 0
Format : MPEG-4 Visual
Format profile : Advanced Simple@L5
Format settings, BVOP : 2
Format settings, QPel : No
Format settings, GMC : No warppoints
Format settings, Matrix : Default (H.263)
Muxing mode : Packed bitstream
Codec ID : XVID
Codec ID/Hint : XviD
Duration : 1h 34mn
Bit rate : 1 426 Kbps
Width : 720 pixels
Height : 400 pixels
Display aspect ratio : 16:9
Frame rate : 25.000 fps
Color space : YUV
Chroma subsampling : 4:2:0
Bit depth : 8 bits
Scan type : Progressive
Compression mode : Lossy
Bits/(Pixel*Frame) : 0.198
Stream size : 964 MiB (91%)
Writing library : XviD 73
Audio
ID : 1
Format : MPEG Audio
Format version : Version 1
Format profile : Layer 3
Mode : Joint stereo
Mode extension : MS Stereo
Codec ID : 55
Codec ID/Hint : MP3
Duration : 1h 34mn
Bit rate mode : Constant
Bit rate : 128 Kbps
Channel(s) : 2 channels
Sampling rate : 48.0 KHz
Compression mode : Lossy
Stream size : 86.6 MiB (8%)
Alignment : Split accross interleaves
Interleave, duration : 40 ms (1.00 video frame)
Interleave, preload duratio : 500 ms
Writing library : LAME3.98.2ЄЄЄЄЄЄЄЄЄЄ
2-е действие:
Общее
Полное имя : Nepobedimaya.Armada_Moskovskij.teatr.MOST.(2.dejstviya.iz.2).2013.XviD.SATRip.fenixclub\Nepobedimaya.Armada.(2-e.dejstvie).2013.avi
Format : AVI
Format/Info : Audio Video Interleave
File size : 437 MiB
Duration : 39mn 4s
Overall bit rate : 1 562 Kbps
Writing application : VirtualDubModRus 1.5.10.2 (build 2542/release)
Writing library : VirtualDub build 32842/release
Video
ID : 0
Format : MPEG-4 Visual
Format profile : Advanced Simple@L5
Format settings, BVOP : 2
Format settings, QPel : No
Format settings, GMC : No warppoints
Format settings, Matrix : Default (H.263)
Muxing mode : Packed bitstream
Codec ID : XVID
Codec ID/Hint : XviD
Duration : 39mn 4s
Bit rate : 1 424 Kbps
Width : 720 pixels
Height : 400 pixels
Display aspect ratio : 16:9
Frame rate : 25.000 fps
Color space : YUV
Chroma subsampling : 4:2:0
Bit depth : 8 bits
Scan type : Progressive
Compression mode : Lossy
Bits/(Pixel*Frame) : 0.198
Stream size : 398 MiB (91%)
Writing library : XviD 73
Audio
ID : 1
Format : MPEG Audio
Format version : Version 1
Format profile : Layer 3
Mode : Joint stereo
Mode extension : MS Stereo
Codec ID : 55
Codec ID/Hint : MP3
Duration : 39mn 4s
Bit rate mode : Constant
Bit rate : 128 Kbps
Channel(s) : 2 channels
Sampling rate : 48.0 KHz
Compression mode : Lossy
Stream size : 35.8 MiB (8%)
Alignment : Split accross interleaves
Interleave, duration : 40 ms (1.00 video frame)
Interleave, preload duratio : 500 ms
Writing library : LAME3.98.2UUUUEУ•€’?

Скриншоты


Альтернативный хост





Показать сообщения:    

Текущее время: 06-Дек 20:58

Часовой пояс: UTC + 3


Вы не можете начинать темы
Вы не можете отвечать на сообщения
Вы не можете редактировать свои сообщения
Вы не можете удалять свои сообщения
Вы не можете голосовать в опросах
Вы не можете прикреплять файлы к сообщениям
Вы не можете скачивать файлы