Молитва клоунов (Юрий Погребничко) [1999 г., драматическое кабаре, SATRip] Московский театр "Около дома Станиславского"


 

[Цитировать]

Молитва клоунов Название театра: Московский театр "Около дома Станиславского".
Год выпуска: 1999.
Жанр: драматическое кабаре.
Продолжительность: 01:33:16.
Режиссеры: Юрий Погребничко.
В ролях:
Наталья Рожкова, Николай Алексеев, Ольга Бешуля, Лика Добрянская, Лилия Загорская, Елена Слюсарева, Юрий Кантомиров, Елена Кобзарь, Юрий Павлов, Валерий Прохоров, Николай Косенко.
Описание:
Драматическое кабаре по пьесам Чехова.
В спектакле использованы фрагменты из чеховских пьес: "Дядя Ваня", "Три сестры", "Чайка", "Вишневый сад".
Отрывочные диалоги и монологи неприкаянных героев складываются в одну нескончаемую мелодию интеллигентских раздумий. Чеховская человеческая комедия возведена здесь в ранг печальной, трагической, щемящей клоунады.
В странной, рассыпавшейся на эпизоды жизни героев спектакля все смешалось: слезы в испуганных глазах клоунессы, дрожащим голосом произносящей слова о дорогом рояле, который заперт, а ключ потерян; репризный диалог клоунов, врывающийся в горькую исповедь актрисы, отправляющейся в Елец; молчаливое прощание персонажей и финальная песенка про уехавшего в Америку Педро.

Дополнительная информация:
Страна: Россия .
Сценография: Виктор Пушкин.

О спектакле.
Релиз

Качество видео:...SATRip
Формат:.................AVI
Видео:..640x480 (1.33:1), 25 fps, XviD MPEG-4 ~983 kbps avg, 0.13 bit/pixel
Аудио:..44.100 kHz, MPEG Layer 3, 2 ch, ~128.00 kbps avg

Отчет MediaInfo

Общее
Полное имя : Molitva.klounov_Moskovskij.teatr.Okolo.doma.Stanislavskogo.1999.XviD.VHSRip.fenixclub.avi
Format : AVI
Format/Info : Audio Video Interleave
File size : 748 MiB
Duration : 1h 33mn
Overall bit rate : 1 121 Kbps
Writing library : VirtualDub build 32842/release
Video
ID : 0
Format : MPEG-4 Visual
Format profile : Advanced Simple@L5
Format settings, BVOP : 2
Format settings, QPel : No
Format settings, GMC : No warppoints
Format settings, Matrix : Default (H.263)
Muxing mode : Packed bitstream
Codec ID : XVID
Codec ID/Hint : XviD
Duration : 1h 33mn
Bit rate : 983 Kbps
Width : 640 pixels
Height : 480 pixels
Display aspect ratio : 4:3
Frame rate : 25.000 fps
Color space : YUV
Chroma subsampling : 4:2:0
Bit depth : 8 bits
Scan type : Progressive
Compression mode : Lossy
Bits/(Pixel*Frame) : 0.128
Stream size : 656 MiB (88%)
Writing library : XviD 73
Audio
ID : 1
Format : MPEG Audio
Format version : Version 1
Format profile : Layer 3
Mode : Joint stereo
Mode extension : MS Stereo
Codec ID : 55
Codec ID/Hint : MP3
Duration : 1h 33mn
Bit rate mode : Constant
Bit rate : 128 Kbps
Channel(s) : 2 channels
Sampling rate : 44.1 KHz
Compression mode : Lossy
Stream size : 85.4 MiB (11%)
Alignment : Split accross interleaves
Interleave, duration : 40 ms (1.00 video frame)
Interleave, preload duratio : 500 ms
Writing library : LAME3.98.2

Скриншоты

Альтернативный хост




Показать сообщения:    

Текущее время: 03-Дек 20:46

Часовой пояс: UTC + 3


Вы не можете начинать темы
Вы не можете отвечать на сообщения
Вы не можете редактировать свои сообщения
Вы не можете удалять свои сообщения
Вы не можете голосовать в опросах
Вы не можете прикреплять файлы к сообщениям
Вы не можете скачивать файлы