Бесконечная история (Татьяна Марек) [2012 г., сказка, SATRip] Московский областной театр им. А.Н. Островского (ныне Московский Губернский драматический театр)


 

[Цитировать]

Бесконечная история Название театра: Московский областной театр им. А.Н. Островского (ныне Московский Губернский драматический театр).
Жанр: сказка.
Год выпуска: 2012.
Продолжительность: 02:04:16.
Режиссер: Татьяна Марек.
Действующие лица и исполнители:
Бастиан, Атрейо - Андрей Бестужев,
Кореандер - Юрий Морозов,
Пьернрахцарак (скалоед) - Михаил Шилов,
Укюк (мелюзга) - Александр Шугаров,
Вишвузул (ночной эльф) - Василий Шмаков,
Блубб (блуждающий огонек) - Эдуард Айткулов,
Девочка Королева - Татьяна Белковец,
Цайрон (советник) - Андрей Чанцев,
Княгиня тьмы - Наталья Шклярук,
Гморк, Папа - заслуженный артист России Юрий Финякин,
Чернильный человек - Денис Кумохин,
Девочка с улиткой - Ирина Токмакова,
Древняя Морла (черепаха) - заслуженная артистка России Елена Сатель,
Энгивук (гном) - заслуженный артист России Владимир Старостин,
Ургула (жена гнома) - заслуженная артистка России Ольга Смирнова.
Описание:
Мальчик, у которого проблемы в школе, укрылся от хулиганистых соучеников на чердаке. Домой он тоже идти не хочет - у него нет взаимопонимания с сухим и нечутким отцом. Мальчик начинает читать книгу с волшебной историей... и погружается в сказку, войдя в мир страны Фантазия! Его ждут приключения и испытания, пройдя которые он спасает Фантазию, - и человеческая история сможет продолжиться.
Мальчик "вынырнул" из Фантазии обратно в реальную жизнь, и тут его находит отец, обеспокоенный пропажей сына. И сердца отца и сына открываются навстречу друг другу...

Дополнительная информация:
Страна: Россия .
Выпущено: Московский областной театр им. А.Н. Островского (ныне Московский Губернский драматический театр), © Творческая группа "Paragram Pictures".
Автор: Михаэль Энде.
Режиссер: Татьяна Марек.
Хореограф: Андрей Сергиевский.
Музыка: Сергей Курехин.
Художник: Вероника Сосновская.
Художник по свету: Владимир Графов.
Главный режиссер театра: заслуженный артист России Валерий Варецкий.
Премьера спектакля состоялась в октябре 2012 года.
Оператор-постановщик: Сергей Смирнов.

Релиз

Качество: SATRip
Формат: AVI
Видео:..720x400 (1.80:1), 25 fps, XviD MPEG-4 ~1542 kbps avg, 0.21 bit/pixel
Аудио:..44.100 kHz, MPEG Layer 3, 2 ch, ~128.00 kbps avg

Отчет Media Info

Общее
Полное имя : Beskonechnaya.istoriya_Moskovskij.DT.im.Ostrovskogo.2012.XviD.SATRip.fenixclub.avi
Format : AVI
Format/Info : Audio Video Interleave
File size : 1.46 GiB
Duration : 2h 4mn
Overall bit rate : 1 681 Kbps
Writing application : VirtualDubModRus 1.5.10.2 (build 2542/release)
Writing library : VirtualDub build 32842/release
Video
ID : 0
Format : MPEG-4 Visual
Format profile : Advanced Simple@L5
Format settings, BVOP : 2
Format settings, QPel : No
Format settings, GMC : No warppoints
Format settings, Matrix : Default (H.263)
Muxing mode : Packed bitstream
Codec ID : XVID
Codec ID/Hint : XviD
Duration : 2h 4mn
Bit rate : 1 543 Kbps
Width : 720 pixels
Height : 400 pixels
Display aspect ratio : 16:9
Frame rate : 25.000 fps
Color space : YUV
Chroma subsampling : 4:2:0
Bit depth : 8 bits
Scan type : Progressive
Compression mode : Lossy
Bits/(Pixel*Frame) : 0.214
Stream size : 1.34 GiB (92%)
Writing library : XviD 73
Audio
ID : 1
Format : MPEG Audio
Format version : Version 1
Format profile : Layer 3
Mode : Joint stereo
Mode extension : MS Stereo
Codec ID : 55
Codec ID/Hint : MP3
Duration : 2h 4mn
Bit rate mode : Constant
Bit rate : 128 Kbps
Channel(s) : 2 channels
Sampling rate : 44.1 KHz
Compression mode : Lossy
Stream size : 114 MiB (8%)
Alignment : Split accross interleaves
Interleave, duration : 40 ms (1.00 video frame)
Interleave, preload duratio : 500 ms
Writing library : LAME3.98.2

Скриншоты


Альтернативный хост





Показать сообщения:    

Текущее время: 10-Дек 17:45

Часовой пояс: UTC + 3


Вы не можете начинать темы
Вы не можете отвечать на сообщения
Вы не можете редактировать свои сообщения
Вы не можете удалять свои сообщения
Вы не можете голосовать в опросах
Вы не можете прикреплять файлы к сообщениям
Вы не можете скачивать файлы