Элиза Дулиттл (Виктор Окунцов) [1968, мюзикл, телеспектакль, TVRip]


 

[Цитировать]

Элиза Дулиттл Год выпуска: 1968.
Жанр: мюзикл, телеспектакль.
Продолжительность: 01:15:59.
Режиссеры: Виктор Окунцов.
Действующие лица и исполнители:
Элиза Дулиттл - Людмила Вагнер (поет Евгения Перласова),
Генри Хиггинс - Леонард Борисевич (поет Николай Калошин),
Полковник Пиккеринг - Сергей Боярский,
Эльфрид Дулиттл - Николай Трофимов,
Миссис Пирс - Нина Мамаева,
Миссис Хиггинс - Валентина Чемберг,
Миссис Эйнсфорд-Хилл - Вера Сонина,
Клара - Ирина Асмус,
Фредди - Станислав Ландграф,
Гарри - Константин Зорин,
Джемми - Виктор Ильичев,
Бармен - Игорь Щепетнов,
Миссис Гопкинс - Елизавета Авксентьева,
В эпизодах - артисты Ленинградсих театров.
О спектакле:
Телеспектакль по мюзиклу "Моя прекрасная леди" Алана Джея Лернера на музыку Фредерика Лоу, созданному на основе пьесы Бернарда Шоу "Пигмалион".
Профессор фонетики Генри Хиггинс заключает со своим коллегой-лингвистом, полковником Пикерингом пари: он берется через полгода превратить лондонскую цветочницу Элизу Дулиттл в настоящую леди.

Дополнительная информация:
Страна: СССР .
Выпущено: Ленинградское телевидение.
Автор мюзикла: Алана Джей Лернер.
Композитор: Фредерик Лоу.
Телевизионный сценарий и постановка: Виктор Окунцов.
Художник-постановщик: Александр Евграфов.
Балетмейстер: Кирилл Ласкари.
Операторы: Борис Никаноров, А. Пономарев, М. Семенов, А. Воскобойников.
Эстрадный оркестр Ленинградского радио и телевидения.
Дирижер:
Георгий Дониях.
Релиз

Качество видео:...TVRip
Формат:.................AVI
Видео:..640x480 (1.33:1), 25 fps, XviD MPEG-4 ~1238 kbps avg, 0.16 bit/pixel
Аудио:..44.100 kHz, MPEG Layer 3, 2 ch, ~128.00 kbps avg

Отчет Media Info

General
Complete name : Eliza.Dulitl.1968.XviD.TVRip.fenixclub.avi
Format : AVI
Format/Info : Audio Video Interleave
File size : 748 MiB
Duration : 1h 15mn
Overall bit rate : 1 377 Kbps
Writing application : VirtualDubModRus 1.5.10.2 (build 2542/release)
Writing library : VirtualDub build 32842/release
Video
ID : 0
Format : MPEG-4 Visual
Format profile : Advanced Simple@L5
Format settings, BVOP : 2
Format settings, QPel : No
Format settings, GMC : No warppoints
Format settings, Matrix : Default (H.263)
Muxing mode : Packed bitstream
Codec ID : XVID
Codec ID/Hint : XviD
Duration : 1h 15mn
Bit rate : 1 239 Kbps
Width : 640 pixels
Height : 480 pixels
Display aspect ratio : 4:3
Frame rate : 25.000 fps
Color space : YUV
Chroma subsampling : 4:2:0
Bit depth : 8 bits
Scan type : Progressive
Compression mode : Lossy
Bits/(Pixel*Frame) : 0.161
Stream size : 673 MiB (90%)
Writing library : XviD 73
Audio
ID : 1
Format : MPEG Audio
Format version : Version 1
Format profile : Layer 3
Mode : Joint stereo
Mode extension : MS Stereo
Codec ID : 55
Codec ID/Hint : MP3
Duration : 1h 15mn
Bit rate mode : Constant
Bit rate : 128 Kbps
Channel(s) : 2 channels
Sampling rate : 44.1 KHz
Compression mode : Lossy
Stream size : 69.6 MiB (9%)
Alignment : Split accross interleaves
Interleave, duration : 40 ms (1.00 video frame)
Interleave, preload duratio : 500 ms.

Скриншоты

Альтернативный хост




Показать сообщения:    

Текущее время: 06-Дек 19:01

Часовой пояс: UTC + 3


Вы не можете начинать темы
Вы не можете отвечать на сообщения
Вы не можете редактировать свои сообщения
Вы не можете удалять свои сообщения
Вы не можете голосовать в опросах
Вы не можете прикреплять файлы к сообщениям
Вы не можете скачивать файлы