Самоубийца (Валентин Плучек) [1989 г., комедия, DVDRip] Московский академический театр Сатиры


 

[Цитировать]

Самоубийца (2 серии) Название театра: Московский академический театр Сатиры
Жанр: комедия.
Год выпуска: 1989.
Продолжительность: 01:28:55 + 01:22:51 (02:51:46).
Режиссер: Валентин Плучек.
Действующие лица и исполнители:
Подсекальников - Роман Ткачук,
Мария Лукьяновна - Валентина Шарыкина,
Серафима Ильинична - Ольга Аросева,
Калабушкин - Спартак Мишулин,
Маргарита Ивановна - Зоя Зелинская,
Клеопатра Максимовна - Нина Феклисова,
Раиса Филипповна - Наталья Фекленко,
Гранд-Скубик - Георгий Менглет,
Егорушка - Александр Диденко,
Пугачев - Борис Кумаритов,
Виктор Викторович - Михаил Державин,
Отец Елпидий - Николай Пеньков,
Зинка - Елена Яковлева,
Груня - Лилия Шарапова,
Соседка - Любовь Фруктина,
Певица в ресторане - Наталья Защипина.
Описание:
Некто Семен Семенович Подсекальников, измученный хроническим бездельем и желанием быть в центре внимания, решил наложить на себя руки. Но пока только в мыслях, для острых ощущений. К его немалому удивлению нашлось немало граждан, которые с восторгом встретили это мужественное решение. Узнав, что он собирается застрелиться, его сосед Калабушкин решает на этом заработать...
Дополнительная информация:
Страна: СССР .
Выпущено: Главная редакция литературно-драматических программ ЦТ.
Автор: Николай Эрдман.
Композитор: Игорь Кефалиди.
Художник: Борис Мессерер.
Оператор-постановщик: Борис Кипарисов.

Релиз

Качество: DVDRip
Формат: AVI
Видео:..688x512 (1.34:1), 25 fps, XviD MPEG-4 ~1670 kbps avg, 0.19 bit/pixel
Аудио:..48 kHz, MPEG Layer 3, 2 ch, ~128.00 kbps avg

Отчет Media Info

1-я серия
Общее
Полное имя : Samoubijca_Moskovskij.teatr.satiry.1989.DVDRip.fenixclub\Samoubijca_Moskovskij.teatr.satiry.1989.1.avi
Format : AVI
Format/Info : Audio Video Interleave
File size : 1.12 GiB
Duration : 1h 28mn
Overall bit rate : 1 808 Kbps
Writing application : VirtualDubModRus 1.5.10.2 (build 2542/release)
Writing library : VirtualDub build 32842/release
Video
ID : 0
Format : MPEG-4 Visual
Format profile : Advanced Simple@L5
Format settings, BVOP : 2
Format settings, QPel : No
Format settings, GMC : No warppoints
Format settings, Matrix : Default (H.263)
Muxing mode : Packed bitstream
Codec ID : XVID
Codec ID/Hint : XviD
Duration : 1h 28mn
Bit rate : 1 670 Kbps
Width : 688 pixels
Height : 512 pixels
Display aspect ratio : 4:3
Frame rate : 25.000 fps
Color space : YUV
Chroma subsampling : 4:2:0
Bit depth : 8 bits
Scan type : Progressive
Compression mode : Lossy
Bits/(Pixel*Frame) : 0.190
Stream size : 1.04 GiB (92%)
Writing library : XviD 73
Audio
ID : 1
Format : MPEG Audio
Format version : Version 1
Format profile : Layer 3
Mode : Joint stereo
Mode extension : MS Stereo
Codec ID : 55
Codec ID/Hint : MP3
Duration : 1h 28mn
Bit rate mode : Constant
Bit rate : 128 Kbps
Channel(s) : 2 channels
Sampling rate : 48.0 KHz
Compression mode : Lossy
Stream size : 81.4 MiB (7%)
Alignment : Split accross interleaves
Interleave, duration : 40 ms (1.00 video frame)
Interleave, preload duratio : 500 ms.
2-я серия
Общее
Полное имя : Samoubijca_Moskovskij.teatr.satiry.1989.DVDRip.fenixclub\Samoubijca_Moskovskij.teatr.satiry.1989.2.avi
Format : AVI
Format/Info : Audio Video Interleave
File size : 1.05 GiB
Duration : 1h 22mn
Overall bit rate : 1 808 Kbps
Writing application : VirtualDubModRus 1.5.10.2 (build 2542/release)
Writing library : VirtualDub build 32842/release
Video
ID : 0
Format : MPEG-4 Visual
Format profile : Advanced Simple@L5
Format settings, BVOP : 2
Format settings, QPel : No
Format settings, GMC : No warppoints
Format settings, Matrix : Default (H.263)
Muxing mode : Packed bitstream
Codec ID : XVID
Codec ID/Hint : XviD
Duration : 1h 22mn
Bit rate : 1 670 Kbps
Width : 688 pixels
Height : 512 pixels
Display aspect ratio : 4:3
Frame rate : 25.000 fps
Color space : YUV
Chroma subsampling : 4:2:0
Bit depth : 8 bits
Scan type : Progressive
Compression mode : Lossy
Bits/(Pixel*Frame) : 0.190
Stream size : 990 MiB (92%)
Writing library : XviD 73
Audio
ID : 1
Format : MPEG Audio
Format version : Version 1
Format profile : Layer 3
Mode : Joint stereo
Mode extension : MS Stereo
Codec ID : 55
Codec ID/Hint : MP3
Duration : 1h 22mn
Bit rate mode : Constant
Bit rate : 128 Kbps
Channel(s) : 2 channels
Sampling rate : 48.0 KHz
Compression mode : Lossy
Stream size : 75.9 MiB (7%)
Alignment : Split accross interleaves
Interleave, duration : 40 ms (1.00 video frame)
Interleave, preload duratio : 500 ms.

Скриншоты


Альтернативный хост





Показать сообщения:    

Текущее время: 05-Дек 17:34

Часовой пояс: UTC + 3


Вы не можете начинать темы
Вы не можете отвечать на сообщения
Вы не можете редактировать свои сообщения
Вы не можете удалять свои сообщения
Вы не можете голосовать в опросах
Вы не можете прикреплять файлы к сообщениям
Вы не можете скачивать файлы