А зори здесь тихие (Иван Рассомахин) [1970 г., военный, драма, телеспектакль, TVRip]


 

[Цитировать]

А зори здесь тихие Год выпуска: 1970.
Жанр: военный, драма, телеспектакль.
Продолжительность: 01:29:50.
Режиссер: Иван Рассомахин.
В ролях:
Васков - Петр Шелохонов,
Рита - Галина Филимонова,
Женя - Р. Милославская,
Соня - Наталья Байтальская,
Галя - Г. Поповская,
Лиза - Марина Мальцева,
Люда - Наталья Орлова,
Вера - Татьяна Егорова,
Катя - Ирина Григорьева,
Парень - Виктор Семеновский,
От автора - Михаил Храбров.
Описание:
Телеспектакль по одноименной повести Бориса Васильева.
Доп. информация:
Страна: СССР .
Выпущено: Ленинградское телевидение.
Автор: Борис Васильев.
Автор сценария: В. Чернова.
Ведущий оператор: Н. Лебедев.
Композитор: Яков Вайсбург.
Художник: И. Поляков.

Еще постер

Релиз

Качество: TVRip
Формат: AVI
Видео: 640x480 (1.33:1), 25 fps, XviD MPEG-4 ~1028 kbps avg, 0.13 bit/pixel
Аудио: 44.100 kHz, MPEG Layer 3, 2 ch, ~128.00 kbps avg

Отчет MI

General
Complete name : A.zori\A.zori.zdes'.tihie.1970.XviD.TVRip.fenixclub.avi
Format : AVI
Format/Info : Audio Video Interleave
File size : 750 MiB
Duration : 1h 29mn
Overall bit rate : 1 167 Kbps
Writing application : VirtualDubModRus 1.5.10.2 (build 2542/release)
Writing library : VirtualDub build 32842/release
Video
ID : 0
Format : MPEG-4 Visual
Format profile : Advanced Simple@L5
Format settings, BVOP : 2
Format settings, QPel : No
Format settings, GMC : No warppoints
Format settings, Matrix : Default (H.263)
Muxing mode : Packed bitstream
Codec ID : XVID
Codec ID/Hint : XviD
Duration : 1h 29mn
Bit rate : 1 029 Kbps
Width : 640 pixels
Height : 480 pixels
Display aspect ratio : 4:3
Frame rate : 25.000 fps
Color space : YUV
Chroma subsampling : 4:2:0
Bit depth : 8 bits
Scan type : Progressive
Compression mode : Lossy
Bits/(Pixel*Frame) : 0.134
Stream size : 661 MiB (88%)
Writing library : XviD 73
Audio
ID : 1
Format : MPEG Audio
Format version : Version 1
Format profile : Layer 3
Mode : Joint stereo
Codec ID : 55
Codec ID/Hint : MP3
Duration : 1h 29mn
Bit rate mode : Constant
Bit rate : 128 Kbps
Channel(s) : 2 channels
Sampling rate : 44.1 KHz
Compression mode : Lossy
Stream size : 82.2 MiB (11%)
Alignment : Split accross interleaves
Interleave, duration : 40 ms (1.00 video frame)
Interleave, preload duratio : 500 ms.

Скриншоты

Альтернативный хост




Показать сообщения:    

Текущее время: 10-Дек 13:50

Часовой пояс: UTC + 3


Вы не можете начинать темы
Вы не можете отвечать на сообщения
Вы не можете редактировать свои сообщения
Вы не можете удалять свои сообщения
Вы не можете голосовать в опросах
Вы не можете прикреплять файлы к сообщениям
Вы не можете скачивать файлы