Мэри Поппинс (Фаина Веригина, Феликс Глямшин) [1979 г., Сказка, экранизация, телеспектакль, SATRip] Московский драматический театр имени М. Н. Ермоловой


 

[Цитировать]

Мэри ПоппинсНазвание театра: Московский драматический театр имени М. Н. Ермоловой.
Год выпуска: 1979.
Жанр: Сказка, экранизация, телеспектакль.
Продолжительность: 01:40:23.
Режиссеры: заслуженный деятель искусств России Фаина Веригина, Феликс Глямшин.
Действующие лица и исполнители:
Мэри Поппинс - Галина Кремнева,
Джейн - Татьяна Аргунова,
Майкл - заслуженная артистка России Наталья Громова,
Миссис Бэнкс, она же королева - Ариадна Ардашникова,
Мисте Бэнкс, он же король - заслуженный артист России Владимир Мащенко,
Нелей, он же паж - народный артист России Алексей Жарков,
Мисс Эндрю - заслуженная артистка России Елена Кононенко,
Валентин - заслуженный артист России Георгий Назаренко,
Вильям - Владимир Карнышов,
Прадедушка, он же лорд-мэр - заслуженный артист России Валерий Зотов,
Пожилой джентльмен, он же первый министр - Юрий Блащук,
Сторож - народный артист России Виктор Павлов,
Мороженщик - заслуженный артист России Юрий Голышев.
Описание:
По мотивам сказок Памелы Линдон Трэверс (авторы пьесы Борис Заходер и Вадим Климовский).
Что делать бедным родителям, если в доме кавардак, дети стоят на головах, и ни одна из то и дело меняющихся нянь не в состоянии навести порядок? Остается только нанять няню-волшебницу! Загадочная молодая дама с решительными манерами никогда не отвечает детям на вопрос, откуда она появилась, и заявляет, что ее унесет от них ветер...
Одна их любимых детьми во всем мире книг, "Мэри Поппинс" была неоднократно экранизирована. Предлагаю вам посмотреть историю о самой удивительной на свете няне в постановке театра им. Ермоловой.

Дополнительная информация:
Страна: СССР .
Выпущено: Московский драматический театр имени М. Н. Ермоловой, ТО «Экран».
Режиссер спектакля: заслуженный деятель искусств России Фаина Веригина.
Авторы пьесы: Борис Заходер, Вадим Климовский.
По сказкам Памелы Линдон Трэверс.
Режиссер телеверсии: Феликс Глямшин.
Операторы-постановщики: Евгений Русаков, Юрий Журавлёв.
Композиторы: Виктор Берковский, Сергей Никитин.
Художники-постановщики: Владимир Серебровский, Виктор Лукьянов.

Еще постер

Релиз
Рип с этой раздачи.
Большое спасибо Cheef mate за предоставленый материал для рипа!!!

Качество: SATRip
Формат: AVI
Видео: 640x480 (1.33:1), 25 fps, XviD build 73 ~910 kbps avg, 0.12 bit/pixel
Аудио: 48 kHz, MPEG Layer 3, 2 ch, ~128.00 kbps avg

Отчет MI

General
Complete name : Meri.Poppins.1979.XviD.SATRip_752.avi
Format : AVI
Format/Info : Audio Video Interleave
File size : 752 MiB
Duration : 1h 40mn
Overall bit rate : 1 048 Kbps
Writing application : VirtualDubMod 1.5.10.3 | www.virtualdub-fr.org || (build 2550/release)
Writing library : VirtualDubMod build 2550/release
Video
ID : 0
Format : MPEG-4 Visual
Format profile : Advanced Simple@L5
Format settings, BVOP : 2
Format settings, QPel : No
Format settings, GMC : No warppoints
Format settings, Matrix : Custom
Codec ID : XVID
Codec ID/Hint : XviD
Duration : 1h 40mn
Bit rate : 910 Kbps
Width : 640 pixels
Height : 480 pixels
Display aspect ratio : 4:3
Frame rate : 25.000 fps
Color space : YUV
Chroma subsampling : 4:2:0
Bit depth : 8 bits
Scan type : Progressive
Compression mode : Lossy
Bits/(Pixel*Frame) : 0.119
Stream size : 654 MiB (87%)
Writing library : XviD 73
Audio
ID : 1
Format : MPEG Audio
Format version : Version 1
Format profile : Layer 3
Codec ID : 55
Codec ID/Hint : MP3
Duration : 1h 40mn
Bit rate mode : Constant
Bit rate : 128 Kbps
Channel(s) : 2 channels
Sampling rate : 48.0 KHz
Compression mode : Lossy
Stream size : 91.9 MiB (12%)
Alignment : Aligned on interleaves
Interleave, duration : 40 ms (1.00 video frame)
Interleave, preload duratio : 504 ms
Writing library : LAME3.99r
Encoding settings : -m s -V 4 -q 2 -lowpass 17 -b 128

Скриншоты

Альтернативный хост




Показать сообщения:    

Текущее время: 07-Дек 19:30

Часовой пояс: UTC + 3


Вы не можете начинать темы
Вы не можете отвечать на сообщения
Вы не можете редактировать свои сообщения
Вы не можете удалять свои сообщения
Вы не можете голосовать в опросах
Вы не можете прикреплять файлы к сообщениям
Вы не можете скачивать файлы